<?xml version="1.0" standalone="no"?>
<!DOCTYPE svg PUBLIC "-//W3C//DTD SVG 1.1//EN" "http://www.w3.org/Graphics/SVG/1.1/DTD/svg11.dtd" >
<svg xmlns="http://www.w3.org/2000/svg">
<metadata></metadata>
<defs>
<font id="aleolight" horiz-adv-x="1579" >
<font-face units-per-em="2048" ascent="1649" descent="-399" />
<missing-glyph horiz-adv-x="493" />
<glyph unicode="&#xfb01;" horiz-adv-x="1204" d="M92 947v40h173v87q0 92 28 170q27 75 80 128q53 52 129 81q78 29 173 29q188 0 296 -111l2 -2l2 -2v-1q13 -15 18 -26q7 -15 7 -35q0 -19 -7 -34t-20 -28q-12 -12 -29 -20q-15 -7 -35 -7t-35 7t-28 20t-20 28t-7 34q0 20 7 35q6 14 14 23q-102 57 -233 36 q-96 -18 -158 -75q-89 -83 -89 -253v-84h597v-906q11 0 34 -0.5t33 -1.5q20 -1 46 -1q6 0 12 -0.5t7 -0.5q41 -2 41 -36v-41h-173h-97h-172v41q0 35 40 36q1 0 7.5 0.5t12.5 0.5q25 0 45 1q10 1 33 1.5t34 0.5v833h-497v-833q11 0 33.5 -0.5t32.5 -1.5q20 -1 45 -1 q6 0 12 -0.5t7 -0.5q41 -2 41 -36v-41h-171h-94h-4h-169v41q0 34 41 36q1 0 7 0.5t12 0.5q24 0 44 1q10 1 32 1.5t33 0.5v831l-143 10q-30 2 -30 25z" />
<glyph unicode="&#xfb02;" horiz-adv-x="1324" d="M93 946v40h173v67q0 90 27 168q26 76 78 134q51 57 127 88q75 31 174 31q22 0 72 -2q39 -2 73 -6q51 -4 66 -5q40 -2 52 -2h74v-1230q0 -83 40 -127q41 -45 122 -45q27 0 40 4q17 5 24 5q12 0 14 -13l5 -49q-21 -11 -46 -16q-27 -5 -53 -5q-62 0 -107 19q-18 8 -39 20 q-20 13 -36 32q-32 35 -46 78t-16 96v1161q-13 0 -115 8q-55 4 -110 4q-74 0 -137 -25q-64 -25 -103 -69q-40 -45 -63 -110q-22 -68 -22 -144v-67h294v-75h-293v-831q11 0 34 -0.5t33 -1.5q20 -1 46 -1q6 0 12 -0.5t7 -0.5q41 -2 41 -36v-41h-173h-96h-169v41q0 34 41 36 q1 0 7 0.5t12 0.5q24 0 44 1q10 1 32 1.5t33 0.5v831l-143 10q-30 1 -30 25z" />
<glyph horiz-adv-x="0" />
<glyph unicode="&#xd;" horiz-adv-x="395" />
<glyph horiz-adv-x="395" />
<glyph horiz-adv-x="395" />
<glyph unicode=" "  horiz-adv-x="493" />
<glyph unicode="&#x09;" horiz-adv-x="493" />
<glyph unicode="&#xa0;" horiz-adv-x="493" />
<glyph unicode="!" horiz-adv-x="436" d="M121 79q0 20 7 37t20 30q12 12 30 20t37 8q18 0 37 -8q17 -7 30 -20q15 -15 21 -30q7 -17 7 -37q0 -23 -7 -38t-21 -29q-13 -13 -30 -20t-37 -7q-40 0 -67 27t-27 67zM171 863v586h95v-586q0 -60 -1 -87q-1 -14 -1.5 -41.5t-0.5 -41.5q-1 -28 -5 -90q-3 -44 -6 -104h-67 q-3 60 -6 104q-2 27 -4 90q-2 56 -3 83t-1 87z" />
<glyph unicode="&#x22;" horiz-adv-x="670" d="M144 1150v299h85v-299l-9 -157q-2 -18 -9 -27q-8 -10 -25 -10q-14 0 -22 10q-9 10 -10 27zM441 1150v299h85v-299l-9 -157q-1 -18 -9 -27q-8 -10 -25 -10q-14 0 -22 10q-9 10 -10 27z" />
<glyph unicode="#" horiz-adv-x="1146" d="M65 484v10q0 1 2 15l3 16h223l84 399h-259l6 39q4 33 45 33h218l89 414q5 21 17 29q13 10 30 10h43l-97 -453h305l97 453h43q32 0 32 -31q0 -9 -1 -12l-89 -410h230l-6 -39q-4 -33 -46 -33h-188l-84 -399h230q31 0 31 -26l-4 -45h-267l-97 -454h-42q-14 0 -23 9t-9 25 q0 8 1 11l88 409h-305l-89 -413q-5 -23 -17 -32t-30 -9h-43l97 454h-188q-15 0 -22 6q-8 6 -8 24zM375 525h305l84 399h-305z" />
<glyph unicode="$" horiz-adv-x="1030" d="M54 173l28 40q12 15 29 15q11 0 23 -11q2 -2 33 -28q30 -26 46 -37q32 -23 62 -38q35 -18 80 -31q43 -13 103 -16l32 651q-69 21 -135 48q-70 29 -118 68q-53 44 -83 102q-32 62 -32 154q0 72 26 136q27 66 79 118t127 83q78 32 173 35l10 172q2 16 8 24q7 9 22 9h37 l-11 -206q106 -8 181 -45q78 -39 142 -103l-22 -35q-10 -17 -27 -17q-13 0 -32 16q-23 20 -52 38q-28 18 -80 39q-48 20 -114 24l-30 -585q43 -13 97 -32q52 -18 93 -37q48 -22 82 -47q40 -29 67 -63q26 -33 44 -83q15 -42 15 -108q0 -91 -29 -166q-30 -78 -86 -137 q-54 -57 -137 -94q-82 -37 -186 -41l-11 -216q-2 -14 -9 -23t-21 -9h-37l13 248q-131 6 -229 56q-97 49 -171 132zM213 1098q0 -63 23 -109q22 -44 61 -77q38 -32 90 -55q61 -27 108 -43l28 565q-78 -4 -135 -28q-58 -24 -97 -63q-40 -40 -59 -88t-19 -102zM523 67 q81 4 146 33q64 28 108 74q43 45 66 105q22 59 22 129q0 68 -25 114q-26 47 -69 80q-42 32 -99 55q-44 18 -117 41z" />
<glyph unicode="%" horiz-adv-x="1564" d="M92 1101q0 90 24 159q24 70 64 114q41 45 97 68q57 23 119 23t119 -23q54 -22 97 -68q40 -43 65 -114q24 -69 24 -159q0 -89 -24 -157t-67 -114t-97 -68q-57 -23 -117 -23q-62 0 -119 23q-56 23 -97 68q-39 43 -64 114q-24 68 -24 157zM171 1101q0 -79 18 -135 q18 -54 49 -92q29 -35 71 -52t87 -17t88 17q42 16 73 52q30 35 49 92q18 56 18 135q0 78 -18 135q-18 58 -49 93q-32 37 -73 53q-43 17 -88 17t-87 -17q-41 -17 -71 -53q-32 -38 -49 -93q-18 -57 -18 -135zM212 0l1039 1431q7 9 15 13q10 5 23 5h69l-1041 -1431 q-13 -18 -35 -18h-70zM876 344q0 93 23 159q24 68 65 114q43 47 96 69q57 23 120 23q61 0 118 -23q52 -21 97 -69q40 -43 65 -114q24 -69 24 -159q0 -87 -25 -157q-24 -68 -66 -113q-43 -46 -97 -68q-57 -23 -116 -23q-63 0 -120 23q-55 22 -96 68t-65 113q-23 65 -23 157z M953 344q0 -80 18 -135q17 -53 49 -91q29 -35 72 -52t88 -17q44 0 87 17t72 52q32 38 49 91q18 55 18 135q0 79 -18 136q-17 55 -49 93q-31 37 -72 53q-43 17 -87 17q-45 0 -88 -17q-41 -16 -72 -53q-32 -38 -49 -93q-18 -57 -18 -136z" />
<glyph unicode="&#x26;" horiz-adv-x="1417" d="M81 371q0 73 27 140q28 71 72 123q48 57 110 100q67 46 137 72q-76 87 -109 159q-36 78 -36 165q0 70 26 133q25 60 74 106t115 71t150 25q71 0 130 -23q63 -25 107 -64q48 -43 73 -92q28 -53 29 -110q-6 -1 -14 -3.5t-11 -3.5q-27 -5 -37 -5q-8 0 -16 6q-7 6 -10 18 q-8 28 -25 61q-21 40 -47 66q-33 33 -74 52q-47 22 -105 22q-63 0 -111 -19q-50 -20 -86 -54q-37 -35 -56 -81q-20 -48 -20 -103q0 -85 43 -161q44 -78 133 -165l457 -451q45 71 73 154q28 81 35 155q1 13 8 21q6 7 19 7h56q-2 -96 -36 -198q-34 -101 -98 -195l305 -299h-91 q-19 0 -30 4q-13 5 -27 19l-210 205q-48 -54 -102 -98t-119 -77q-64 -33 -138 -51t-154 -18q-78 0 -152 25q-76 26 -134 75q-59 50 -95 122t-36 165zM180 377q0 -79 30 -137t79 -98t107 -59q60 -20 116 -20q70 0 136 17q63 16 119 45q55 28 103 70q46 40 85 88l-470 461 q-5 3 -11 12q-65 -27 -122 -69q-56 -41 -93 -88t-58 -105q-21 -57 -21 -117z" />
<glyph unicode="'" horiz-adv-x="374" d="M144 1150v299h85v-299l-9 -157q-2 -18 -9 -27q-8 -10 -25 -10q-14 0 -22 10q-9 10 -10 27z" />
<glyph unicode="(" horiz-adv-x="515" d="M112 645q0 128 14 233q15 112 48 225q34 115 87 226q58 121 132 234l43 -27q14 -8 14 -22q0 -8 -8 -21q-121 -196 -183 -407q-62 -212 -62 -441q0 -228 62 -440q62 -213 184 -406q8 -13 8 -21q0 -16 -15 -23l-43 -26q-74 113 -132 234q-54 113 -87 225t-48 225 q-14 105 -14 232z" />
<glyph unicode=")" horiz-adv-x="517" d="M67 -222q0 10 7 21q123 196 185 406q62 212 62 440q0 229 -62 441q-61 208 -184 407q-7 11 -7 21q0 15 13 22l43 27q78 -121 132 -234q53 -111 87 -226q33 -113 48 -225t15 -233q0 -119 -15 -232t-48 -225t-87 -225t-132 -234l-43 26q-14 7 -14 23z" />
<glyph unicode="*" horiz-adv-x="774" d="M104 1357l27 46l194 -113q17 -11 26 -20t24 -27q-11 28 -12 34q-4 20 -4 33v219h54v-218q0 -19 -3 -34q-3 -13 -11 -33q11 17 23 27q14 12 27 19l192 112l27 -46l-193 -112q-16 -10 -29 -14q-18 -6 -30 -7q14 -2 31 -8q12 -4 28 -12l194 -112l-26 -47l-194 113 q-5 3 -26 18q-11 8 -24 25q9 -26 10 -32q4 -18 4 -30v-219h-54v218q0 17 3 30q2 10 11 31q-14 -17 -22 -23q-21 -15 -26 -18l-193 -112l-26 46l193 112q16 8 28 12q17 6 31 8q-15 2 -32 8q-3 1 -27 13z" />
<glyph unicode="+" horiz-adv-x="1148" d="M93 649v75h441v462h79v-462h442v-75h-442v-464h-79v464h-441z" />
<glyph unicode="," horiz-adv-x="466" d="M146 87q0 34 25 61q24 26 65 26q44 0 68 -30t24 -79q0 -40 -11 -86q-11 -44 -31 -85q-22 -44 -49 -81q-26 -36 -64 -72l-15 15q-8 8 -8 18q0 6 3 10q4 6 7 9q4 4 26 30q12 14 32 47q10 17 28 60q12 30 17 70q-4 -1 -14 -3q-5 -1 -17 -1q-38 0 -62 26t-24 65z" />
<glyph unicode="-" horiz-adv-x="758" d="M142 566v83h476v-83h-476z" />
<glyph unicode="." horiz-adv-x="472" d="M142 79q0 18 8 37t19 30q12 12 30 20t38 8q17 0 36 -8t31 -20q13 -13 20 -30q8 -19 8 -37q0 -20 -8 -38q-8 -16 -20 -29q-12 -12 -31 -20q-17 -7 -36 -7q-41 0 -68 27t-27 67z" />
<glyph unicode="/" horiz-adv-x="845" d="M49 -86l637 1538q15 38 55 38h42l-636 -1536q-7 -21 -24 -30q-18 -10 -34 -10h-40z" />
<glyph unicode="0" horiz-adv-x="1264" d="M112 725q0 192 40 330t111 230q70 91 165 136q92 44 202 44t202 -44q95 -45 165 -136q73 -94 112 -230q41 -141 41 -330t-41 -330q-39 -136 -112 -230q-70 -91 -165 -136q-92 -44 -202 -44t-202 44q-95 45 -165 136q-71 92 -111 230t-40 330zM212 725q0 -179 34 -302 q34 -124 91 -203q58 -81 133 -116q76 -36 160 -36t160 36q75 35 133 116q57 79 91 203q34 123 34 302q0 178 -34 301q-35 126 -91 204q-57 80 -133 117q-73 36 -160 36t-160 -36q-76 -37 -133 -117q-56 -78 -91 -204q-34 -123 -34 -301z" />
<glyph unicode="1" horiz-adv-x="924" d="M60 1085l419 370h76v-1378q75 -4 144.5 -7.5t101.5 -5t37 -1.5q33 -1 33 -29v-34h-746v34q0 28 33 29q2 0 12 0.5t30.5 1.5t41.5 2q27 1 75.5 3.5t69.5 3.5l71 3v1174q0 35 3 74l-320 -284q-10 -9 -24 -9q-18 0 -27 12z" />
<glyph unicode="2" horiz-adv-x="1112" d="M76 0v35q0 13 5 23q6 12 14 20l495 501q52 52 113 120q52 58 91 118t61 122t22 133q0 80 -27 139q-28 61 -71 97q-46 39 -103 56q-58 18 -121 18q-67 0 -126 -21t-103 -58q-45 -38 -74 -89q-30 -56 -40 -113q-10 -36 -41 -36h-5q-1 0 -3 1h-2l-49 8q12 97 50 166 q41 76 97 123q60 51 135 76q78 26 166 26q83 0 158 -24q77 -25 133 -72t91 -122q34 -72 34 -172q0 -83 -25 -152q-27 -74 -68 -135q-42 -63 -100 -125q-75 -79 -119 -124l-454 -463q34 8 68 12q32 4 71 4h557q2 51 4 74q1 12 3 27t2 16q0 4 0.5 7.5t1 6t0.5 3.5q3 49 44 49 h39h11v-218v-14v-43h-935z" />
<glyph unicode="3" horiz-adv-x="1107" d="M69 354l39 17q13 5 23 5t22 -5q10 -4 15 -20l7 -20q7 -22 18 -46q15 -34 29 -56q24 -38 44 -59q30 -32 65 -52q37 -21 90 -37q48 -14 120 -14q92 0 161 30q68 30 116 79q47 48 69 106q23 60 23 114q0 67 -21 124q-21 58 -70 99q-50 43 -129 66q-81 24 -198 24v70 q90 1 165 25q72 22 120 63q50 42 73 96q24 55 24 121q0 78 -25 134q-24 55 -69 93q-41 35 -100 54q-54 17 -120 17q-72 0 -126 -20q-61 -22 -101 -57q-44 -38 -74 -89q-28 -47 -44 -115q-7 -36 -38 -36q-8 0 -11 1l-50 8q14 94 51 166q39 75 96 123q60 51 135 76 q78 26 166 26q82 0 157 -23q73 -22 129 -69q55 -46 88 -115t33 -158q0 -72 -22 -128q-23 -57 -61 -100q-40 -45 -90 -72q-54 -29 -114 -44q159 -30 242 -124q82 -92 82 -234q0 -88 -36 -165t-99 -132q-62 -55 -147 -86q-84 -31 -184 -31q-124 0 -207 33q-82 33 -135 86 q-52 52 -83 120t-48 131z" />
<glyph unicode="4" horiz-adv-x="1207" d="M69 488l728 963h87v-957h265v-54q0 -11 -7 -18q-6 -6 -21 -6h-237v-416h-88v416h-683q-17 0 -24 6q-8 6 -11 18zM175 494h621v758q0 24 1 37q2 26 4 40z" />
<glyph unicode="5" horiz-adv-x="1040" d="M67 113l28 40q11 15 30 15q13 0 38 -15q32 -19 65 -34q44 -21 93 -34q54 -15 125 -15q85 0 157 27q74 28 127 78t84 127q30 75 30 170q0 76 -23 143q-22 65 -70 113q-46 46 -118 72t-167 26q-58 0 -124 -9q-65 -9 -139 -30l-64 20l114 642h651v-42q0 -20 -14 -34t-43 -14 h-524l-87 -483q66 17 130 25q57 7 117 7q116 0 199 -32q88 -34 144 -90t87 -138q30 -80 30 -174q0 -116 -40 -205q-41 -92 -108 -154q-68 -64 -159 -98q-88 -33 -194 -33q-63 0 -114 10q-53 10 -103 29q-47 17 -88 42q-39 23 -70 48z" />
<glyph unicode="6" horiz-adv-x="1104" d="M89 461q0 87 43 192q45 111 141 240l396 532q18 24 52 24h86l-432 -564q-53 -71 -59 -79q-29 -40 -48 -73q57 60 144 98q80 35 181 35q93 0 172 -30q76 -29 136 -87q55 -54 89 -135q32 -77 32 -178t-35 -181q-36 -83 -99 -143q-64 -61 -151 -95q-85 -33 -193 -33 q-105 0 -186 32q-82 32 -143 95q-60 61 -93 150t-33 200zM184 437q0 -81 25 -149q26 -70 72 -119q48 -51 112 -77q66 -27 150 -27q88 0 158 27t121 76q48 47 76 116q27 68 27 146q0 81 -26 150q-25 67 -74 114q-47 45 -113 71q-67 26 -146 26q-89 0 -161 -32 q-71 -31 -120 -81q-49 -49 -75 -113t-26 -128z" />
<glyph unicode="7" horiz-adv-x="1127" d="M89 1174v212v63h105h859v-44q0 -12 -4 -30q-2 -8 -9 -22l-664 -1316q-7 -15 -22 -27q-13 -10 -37 -10h-66l669 1311q14 28 31 48h-761q-7 -135 -7 -136q-3 -49 -44 -49h-50z" />
<glyph unicode="8" horiz-adv-x="1133" d="M97 383q0 78 23 142q22 61 65 109t100 77q62 32 128 46q-62 18 -113 50q-47 30 -82 76q-33 44 -51 97q-17 51 -17 116q0 75 29 144q29 68 83 118q56 51 132 79q77 28 174 28t174 -28q74 -27 132 -79q55 -49 84 -118t29 -144q0 -65 -17 -116q-19 -56 -51 -97 q-37 -47 -83 -76q-51 -32 -113 -50q65 -14 127 -46q57 -29 100 -77q42 -47 66 -109q23 -60 23 -142q0 -94 -34 -166t-97 -126q-62 -53 -149 -80t-191 -27t-191 27q-85 26 -148 80t-97 126q-35 75 -35 166zM198 384q0 -74 26 -132q26 -59 76 -102q51 -44 117 -66 q71 -23 151 -23q82 0 151 23q66 22 118 66q47 40 75 102q27 60 27 132q0 95 -35 159q-35 63 -89 101t-120 54q-64 16 -127 16t-127 -16t-119 -54q-56 -39 -90 -101t-34 -159zM245 1095q0 -60 19 -113q21 -57 59 -97q41 -43 100 -67q60 -25 145 -25q84 0 144 25q61 25 101 67 q38 40 59 97q19 53 19 113q0 59 -22 116q-21 53 -63 94q-41 39 -101 62q-61 23 -137 23t-137 -23q-62 -23 -102 -62q-42 -41 -63 -94q-21 -54 -21 -116z" />
<glyph unicode="9" horiz-adv-x="1088" d="M91 1030q0 95 34 173t96 137t146 92t185 33q98 0 177 -32t138 -93q57 -58 90 -143q32 -81 32 -186q0 -57 -12 -108q-13 -53 -34 -102q-21 -48 -56 -105q-30 -49 -75 -115l-380 -557q-15 -24 -50 -24h-88l428 598q8 11 27.5 38.5t29.5 42.5q30 46 47 75q-60 -66 -144 -102 t-180 -36q-86 0 -165 30q-73 28 -130 83q-54 53 -85 131q-31 79 -31 170zM188 1036q0 -77 25 -144q23 -62 69 -108q43 -43 108 -68q63 -24 139 -24q88 0 156 30q69 31 115 78q47 49 71 108q24 60 24 121q0 78 -26 145t-71 112q-47 47 -109 72q-64 26 -138 26q-81 0 -147 -25 q-67 -25 -115 -72q-47 -46 -74 -110q-27 -65 -27 -141z" />
<glyph unicode=":" horiz-adv-x="467" d="M140 79q0 20 7 37t20 30q12 12 30 20t37 8q18 0 37 -8t31 -20q13 -13 20 -30q8 -19 8 -37q0 -20 -8 -38q-7 -16 -20 -29q-12 -12 -31 -20q-17 -7 -37 -7q-40 0 -67 27t-27 67zM140 895q0 20 7 37t20 30q13 14 30 21q15 7 37 7q20 0 37 -7t31 -21q13 -13 20 -30 q8 -19 8 -37q0 -19 -8 -37t-20 -30t-31 -20q-17 -7 -37 -7q-40 0 -67 27t-27 67z" />
<glyph unicode=";" horiz-adv-x="468" d="M143 895q0 18 8 37t19 30q14 14 30 21q15 7 38 7q19 0 36 -7t31 -21q13 -13 20 -30q8 -19 8 -37q0 -19 -8 -37t-20 -30t-31 -20q-17 -7 -36 -7q-41 0 -68 27t-27 67zM148 87q0 34 25 61q24 26 65 26q44 0 68 -30t24 -79q0 -40 -11 -86q-11 -44 -31 -85q-22 -44 -49 -81 q-26 -36 -64 -72l-15 15q-8 8 -8 18q0 6 3 10q4 6 7 9q4 4 26 30q12 14 32 47q10 17 28 60q12 30 17 70q-4 -1 -14 -3q-5 -1 -17 -1q-37 0 -61 26q-25 27 -25 65z" />
<glyph unicode="&#x3c;" horiz-adv-x="973" d="M95 667v42l768 394v-67q0 -12 -6 -19q-9 -11 -21 -17l-567 -286q-36 -19 -73 -27q44 -9 73 -25l567 -288q12 -6 21 -17q6 -8 6 -19v-67z" />
<glyph unicode="=" horiz-adv-x="1129" d="M142 494v75h847v-75h-847zM142 814v76h847v-76h-847z" />
<glyph unicode="&#x3e;" horiz-adv-x="973" d="M110 271v67q0 11 6 20t20 16l567 288q29 15 73 25q-6 1 -38 12q-7 2 -19.5 8t-15.5 7l-567 286q-26 14 -26 36v67l768 -394v-42z" />
<glyph unicode="?" horiz-adv-x="842" d="M66 1323q28 27 62 53q39 29 76 46q45 21 91 32q45 11 106 11q73 0 136 -21q62 -21 111 -62q47 -40 75 -97q29 -60 29 -130q0 -77 -24 -134q-24 -58 -61 -99q-40 -44 -80 -75q-15 -11 -42 -31t-39 -29q-38 -29 -63 -57q-27 -30 -28 -63l-13 -168h-66l-5 175v5q0 43 24 74 q21 28 61 61q30 25 79 60q42 30 79 70q39 42 61 88q24 50 24 119q0 55 -21 99q-22 45 -58 74q-37 29 -85 46q-44 15 -101 15q-70 0 -117 -17q-49 -18 -83 -40q-36 -24 -54 -40q-19 -18 -26 -18q-16 0 -23 12zM272 79q0 18 8 37q7 17 20 30t29 20q18 8 38 8q17 0 36 -8 t31 -20q13 -13 20 -30q8 -19 8 -37q0 -20 -8 -38q-8 -16 -20 -29q-12 -12 -31 -20q-17 -7 -36 -7q-40 0 -67 27q-28 28 -28 67z" />
<glyph unicode="@" horiz-adv-x="1661" d="M97 562q0 169 61 318q59 145 165 254q104 107 243 168q138 61 298 61q134 0 263 -43q123 -41 223 -127q95 -82 155 -209q58 -123 58 -290q0 -112 -30 -204t-81 -158q-49 -63 -122 -103q-66 -36 -148 -36q-92 0 -136 47q-47 50 -48 137q-58 -97 -129 -138 q-72 -42 -156 -42q-57 0 -100 20q-42 19 -69 54q-29 37 -42 82q-14 48 -14 102q0 84 34 174q34 89 97 158q65 71 157 114q94 44 212 44q54 0 102 -9q49 -9 86 -27l-94 -355q-12 -46 -18 -84q-5 -31 -5 -68q0 -43 11 -73q12 -29 30 -44q18 -16 44 -22q24 -6 51 -6 q58 0 112 31t94 87q41 58 65 138q24 81 24 181q0 151 -50 265q-50 113 -135 188q-83 73 -199 111q-112 37 -242 37q-139 0 -265 -54q-128 -55 -221 -151q-95 -98 -150 -232q-56 -136 -56 -296q0 -182 58 -319t157 -230q97 -91 232 -140q132 -48 282 -48q149 0 277 35 q125 34 228 101q8 5 17 5q15 0 21 -14l15 -38q-114 -76 -252 -117q-140 -41 -306 -41q-168 0 -315 54q-148 54 -255 157q-108 104 -171 253q-63 150 -63 342zM568 457q0 -39 11 -77t30 -61q20 -25 51 -40q30 -15 71 -15q37 0 76 12q41 12 76 45q39 36 68 87q35 61 54 140 l81 317q-26 8 -50 11q-34 4 -61 4q-92 0 -168 -38q-75 -38 -128 -98t-81 -135q-30 -79 -30 -152z" />
<glyph unicode="A" horiz-adv-x="1580" d="M77 0v47q0 37 39 41l66 7l555 1354h104l554 -1354l66 -7q40 -5 40 -41v-47h-67h-42h-39h-13h-193v47q0 39 47 42q1 0 5.5 0.5t7.5 0.5q1 0 29 2q22 2 52 3l-144 354l-10 26h-691l-10 -26l-143 -354q30 -1 52 -3q28 -2 29 -2q3 0 7 -0.5t5 -0.5q47 -3 47 -42v-47h-192h-14 h-39h-41h-67zM475 553h628l-285 706q-10 24 -15 39q-3 8 -7.5 24t-6.5 23q-2 -7 -6.5 -23t-7.5 -24q-8 -25 -15 -41z" />
<glyph unicode="B" horiz-adv-x="1306" d="M103 0v41q0 34 41 36q1 0 7 0.5t12 0.5q26 0 46 1q10 1 33 1.5t34 0.5v1287q-11 0 -34 0.5t-33 1.5q-20 1 -46 1q-6 0 -12 0.5t-7 0.5q-41 2 -41 36v41h173h417q120 0 214 -25q90 -24 150 -72q61 -49 89 -116q29 -70 29 -156q0 -56 -20 -110q-20 -53 -58 -99 q-37 -45 -93 -78t-125 -51q173 -26 263 -113q92 -89 92 -233q0 -95 -32 -166q-33 -74 -96 -125q-64 -52 -153 -78q-91 -27 -207 -27h-470h-173zM380 84h364q192 0 289 82t97 232q0 67 -26 124q-24 53 -75 93q-48 38 -121 59q-69 20 -163 20h-365v-610zM380 771h315 q99 0 171 26q74 27 117 67q47 44 67 95q22 57 22 110q0 147 -93 222t-286 75h-313v-595z" />
<glyph unicode="C" horiz-adv-x="1319" d="M76 725q0 165 51 301q50 133 146 234q93 98 224 152q128 53 288 53q202 0 463 -104v-326h-50q-41 0 -44 49q0 6 -1.5 33t-4 79.5t-5.5 109.5q-160 69 -358 69q-131 0 -242 -45q-110 -45 -191 -130q-78 -82 -124 -205q-45 -120 -45 -270q0 -151 44 -274q43 -120 122 -205 q77 -83 184 -128q104 -44 230 -44q80 0 139 10q63 11 112 31q56 23 95 50q50 34 87 69q1 1 10 7q4 3 10 3q11 0 18 -7l41 -44q-47 -50 -98 -87q-50 -37 -117 -66q-63 -27 -138 -42q-70 -14 -165 -14q-151 0 -276 52q-124 52 -215 150t-140 234q-50 138 -50 305z" />
<glyph unicode="D" horiz-adv-x="1556" d="M103 0v41q0 34 41 36q1 0 7 0.5t12 0.5q26 0 46 1q10 1 33 1.5t34 0.5v1287q-11 0 -34 0.5t-33 1.5q-20 1 -46 1q-6 0 -12 0.5t-7 0.5q-41 2 -41 36v40h173h503q152 0 281 -49q126 -49 219 -145q91 -94 141 -228q50 -136 50 -301q0 -167 -50 -302q-50 -133 -141 -228 q-93 -96 -219 -145q-129 -50 -281 -50h-503h-173zM381 85h398q131 0 238 43q109 44 184 125q77 83 119 201t42 271q0 151 -42 270q-42 118 -119 201q-75 81 -184 125q-107 43 -238 43h-398v-1279z" />
<glyph unicode="E" horiz-adv-x="1274" d="M103 0v41q0 34 41 36q1 0 7 0.5t12 0.5q26 0 46 1q10 1 33 1.5t34 0.5v1287q-11 0 -34 0.5t-33 1.5q-20 1 -46 1q-6 0 -12 0.5t-7 0.5q-41 2 -41 36v40h173h868v-86v-213h-50q-41 0 -44 50q-5 92 -8 163h-661v-586h577v-85h-577v-604h661q0 6 1 18.5t2 26t1 26.5 q2 45 3 66q1 14 1 26q3 50 44 50h50v-213v-87h-868h-173z" />
<glyph unicode="F" horiz-adv-x="1218" d="M103 0v41q0 34 41 36q1 0 7 0.5t12 0.5q26 0 46 1q10 1 33 1.5t34 0.5v1287q-11 0 -34 0.5t-33 1.5q-20 1 -46 1q-6 0 -12 0.5t-7 0.5q-41 2 -41 36v40h173h817h51h13v-299h-49q-42 0 -45 50q0 4 -1 22t-3 59.5t-4 81.5h-674v-609h541v-87h-541v-585q11 0 34 -0.5 t33 -1.5q20 -1 46 -1q6 0 12 -0.5t7 -0.5q41 -2 41 -36v-41h-173h-105h-173z" />
<glyph unicode="G" horiz-adv-x="1430" d="M76 725q0 169 51 305t145 233q95 98 229 150t302 52q109 0 261 -30t249 -74v-326h-50q-41 0 -44 49q0 5 -1.5 31t-4 79t-5.5 110q-153 71 -408 71q-141 0 -255 -45q-112 -44 -194 -129q-80 -83 -124 -205q-44 -123 -44 -271q0 -152 44 -275q44 -122 124 -207 q80 -84 190 -129q111 -45 245 -45q80 0 137 7q58 7 114 23q48 14 100 38q53 25 96 49v391h-279q-12 0 -19 7t-7 16v57h400v-515q-50 -35 -113 -67q-61 -32 -124 -50q-71 -21 -144 -31t-168 -10q-158 0 -286 52q-129 52 -222 150t-144 234t-51 305z" />
<glyph unicode="H" horiz-adv-x="1660" d="M103 0v41q0 34 41 36q1 0 7 0.5t12 0.5q26 0 46 1q10 1 33 1.5t34 0.5v1287q-11 0 -34 0.5t-33 1.5q-20 1 -46 1q-6 0 -12 0.5t-7 0.5q-41 2 -41 36v40h173h105h173v-40q0 -34 -41 -36q-1 0 -7 -0.5t-12 -0.5q-26 0 -46 -1q-10 -1 -33 -1.5t-34 -0.5v-595h908v595 q-11 0 -34 0.5t-33 1.5q-20 1 -46 1q-6 0 -12 0.5t-7 0.5q-41 2 -41 36v40h173h105h173v-40q0 -34 -41 -36q-1 0 -7 -0.5t-12 -0.5q-26 0 -46 -1q-10 -1 -33 -1.5t-34 -0.5v-1287q11 0 34 -0.5t33 -1.5q20 -1 46 -1q6 0 12 -0.5t7 -0.5q41 -2 41 -36v-41h-173h-105h-173v41 q0 34 41 36q1 0 7 0.5t12 0.5q26 0 46 1q10 1 33 1.5t34 0.5v613h-908v-613q11 0 34 -0.5t33 -1.5q20 -1 46 -1q6 0 12 -0.5t7 -0.5q41 -2 41 -36v-41h-173h-105h-173z" />
<glyph unicode="I" horiz-adv-x="648" d="M103 0v41q0 34 41 36q1 0 7 0.5t12 0.5q26 0 46 1q10 1 33 1.5t34 0.5v1287q-11 0 -34 0.5t-33 1.5q-20 1 -46 1q-6 0 -12 0.5t-7 0.5q-41 2 -41 36v40h173h105h173v-40q0 -34 -41 -36q-1 0 -7 -0.5t-12 -0.5q-26 0 -46 -1q-10 -1 -33 -1.5t-34 -0.5v-1287q11 0 34 -0.5 t33 -1.5q20 -1 46 -1q6 0 12 -0.5t7 -0.5q41 -2 41 -36v-41h-173h-105h-173z" />
<glyph unicode="J" horiz-adv-x="922" d="M78 13q2 20 3 29q2 20 3 29q1 8 8 16q6 7 20 7q8 0 22 -3q5 -1 15 -4t15 -4q22 -5 41 -8q23 -3 54 -3q77 0 140 24q62 24 107 76q45 53 67 128q23 80 23 181v887q-12 0 -35.5 0.5t-35.5 1.5q-23 1 -53 1q-8 0 -16 1h-7q-40 1 -40 36v41h187h105h173v-41q0 -34 -41 -36 q-1 0 -7 -0.5t-12 -0.5q-26 0 -46 -1q-10 -1 -33 -1.5t-34 -0.5v-885q0 -122 -30 -215q-30 -92 -86 -156q-56 -63 -136 -96q-79 -32 -181 -32q-50 0 -93 7q-50 8 -97 22z" />
<glyph unicode="K" horiz-adv-x="1470" d="M102 0v41q0 34 41 36q1 0 7 0.5t12 0.5q26 0 46 1q10 1 33 1.5t34 0.5v1289q-11 0 -34 0.5t-33 1.5q-20 1 -46 1q-6 0 -12 0.5t-7 0.5q-41 2 -41 36v40h173h104h173v-40q0 -34 -41 -36q-1 0 -7 -0.5t-12 -0.5q-26 0 -46 -1q-10 -1 -33 -1.5t-34 -0.5v-590h86q14 0 34 2 q14 1 26 6q11 4 22 12q14 10 22 18l537 552q-10 0 -32 0.5t-34 0.5q-13 0 -32 0.5t-25 0.5h-24q-41 2 -41 36v41h263h19h143v-41q0 -34 -41 -36h-12q-2 0 -10.5 -0.5t-15.5 -0.5q-6 0 -18.5 -1t-19.5 -1l-556 -570q-22 -23 -34 -32q-11 -9 -33 -18q23 -6 38 -19 q16 -13 34 -34l591 -616q28 -2 40 -2q7 0 16 -0.5t11 -0.5h12q41 -2 41 -36v-41h-43h-85h-25h-9h-273v41q0 34 41 36h26q6 0 26 0.5t34 0.5q13 0 36 0.5t32 0.5l-563 575q-3 3 -7 7.5t-7 7.5t-6 5q-10 9 -21 14q-9 4 -29 8q-11 2 -40 2h-94v-617q11 0 34 -0.5t33 -1.5 q20 -1 46 -1q6 0 12 -0.5t7 -0.5q41 -2 41 -36v-41h-173h-104h-173z" />
<glyph unicode="L" horiz-adv-x="1192" d="M103 0v41q0 34 41 36q1 0 7 0.5t12 0.5q26 0 46 1q10 1 33 1.5t34 0.5v1287q-11 0 -34 0.5t-33 1.5q-20 1 -46 1q-6 0 -12 0.5t-7 0.5q-41 2 -41 36v40h173h104h173v-40q0 -34 -41 -36q-1 0 -7 -0.5t-12 -0.5q-26 0 -46 -1q-10 -1 -33 -1.5t-34 -0.5v-1279h600q1 38 5 73 q1 10 2.5 24t1.5 18q2 16 2 17q3 49 44 49h10h40v-149v-83v-38h-18h-18h-773h-173z" />
<glyph unicode="M" horiz-adv-x="1974" d="M103 0v41q0 34 41 36q1 0 7 0.5t12 0.5q26 0 46 1q10 1 33 1.5t34 0.5v1287q-11 0 -34 0.5t-33 1.5q-20 1 -46 1q-6 0 -12 0.5t-7 0.5q-41 2 -41 36v40h173h72q14 0 23 -2.5t17 -16.5l584 -1007q14 -27 27 -62q2 6 13 33l15 30l569 1006q8 14 16 17t23 2h72h173v-40 q0 -34 -41 -36q-1 0 -7 -0.5t-12 -0.5q-26 0 -46 -1q-10 -1 -33 -1.5t-34 -0.5v-1287q11 0 34 -0.5t33 -1.5q20 -1 46 -1q6 0 12 -0.5t7 -0.5q41 -2 41 -36v-41h-173h-92h-177v41q0 34 41 36q1 0 7 0.5t13 0.5q27 0 48 1q11 1 33.5 1.5t34.5 0.5v1154q0 26 3 56l-570 -1012 q-15 -27 -41 -27h-16q-26 0 -41 27l-586 1013q3 -30 3 -57v-1154q12 0 34.5 -0.5t33.5 -1.5q21 -1 48 -1h14l7 -1q40 -1 40 -36v-41h-177h-91h-173z" />
<glyph unicode="N" horiz-adv-x="1616" d="M103 0v41q0 34 41 36q1 0 7 0.5t12 0.5q26 0 46 1q10 1 33 1t34 1v1287q-11 0 -34 0.5t-33 1.5q-20 1 -46 1q-6 0 -12 0.5t-7 0.5q-41 2 -41 36v40h173h51q13 0 23 -3q7 -3 17 -16l938 -1255q-3 30 -3 59v1135q-12 0 -34.5 0.5t-33.5 1.5q-21 1 -48 1q-6 0 -13 1h-7 q-41 2 -41 36v40h177h92h173v-40q0 -34 -41 -36q-1 0 -7 -0.5t-12 -0.5q-26 0 -46 -1q-10 -1 -33 -1.5t-34 -0.5v-1368h-50q-23 0 -38 21l-942 1257q3 -30 3 -58v-1139q12 0 34.5 -0.5t33.5 -1.5q21 -1 48 -1q6 0 12.5 -0.5t7.5 -0.5q41 -2 41 -36v-41h-177h-91h-173z" />
<glyph unicode="O" horiz-adv-x="1543" d="M76 725q0 170 50 304q51 136 142 233q92 98 218 150q129 53 280 53q156 0 282 -52t218 -150q92 -97 141 -234q50 -138 50 -304q0 -167 -50 -305q-49 -135 -141 -233t-218 -150t-282 -52q-154 0 -280 52t-218 150q-91 97 -142 233q-50 134 -50 305zM183 725 q0 -150 43 -273q42 -120 120 -204q79 -85 184 -128q108 -44 236 -44q130 0 239 44q105 42 183 128q77 85 119 204q42 120 42 273q0 151 -42 272q-41 120 -119 205q-77 85 -183 129t-239 44q-132 0 -236 -44q-106 -45 -184 -129t-120 -205q-43 -124 -43 -272z" />
<glyph unicode="P" horiz-adv-x="1214" d="M103 0v41q0 34 41 36q1 0 7 0.5t12 0.5q26 0 46 1q10 1 33 1.5t34 0.5v1287q-11 0 -34 0.5t-33 1.5q-20 1 -46 1q-6 0 -12 0.5t-7 0.5q-41 2 -41 36v41h173h353q254 0 384 -112t130 -318q0 -95 -36 -175t-102 -138q-64 -57 -161 -90q-96 -32 -216 -32h-248v-503 q11 0 34 -0.5t33 -1.5q20 -1 46 -1q6 0 12 -0.5t7 -0.5q41 -2 41 -36v-41h-173h-104h-173zM380 668h249q98 0 172 26t128 74q53 46 81 111q28 63 28 140q0 167 -103 257t-306 90h-249v-698z" />
<glyph unicode="Q" horiz-adv-x="1554" d="M75 725q0 170 50 304q51 136 142 233q92 98 218 150q129 53 280 53q156 0 282 -52t218 -150q91 -97 141 -234q50 -138 50 -304q0 -111 -22 -206q-23 -98 -63 -179q-39 -77 -100 -145q-59 -65 -132 -111l377 -403h-89q-22 0 -36 5q-18 7 -29 20l-309 334q-59 -25 -137 -41 q-67 -14 -151 -14q-154 0 -280 52t-218 150q-91 97 -142 233q-50 134 -50 305zM182 725q0 -150 43 -273q42 -120 120 -204q79 -85 184 -128q108 -44 236 -44q130 0 239 44q105 42 183 128q77 85 119 204q42 120 42 273q0 151 -42 272q-41 120 -119 205q-77 85 -183 129 t-239 44q-132 0 -236 -44q-106 -45 -184 -129t-120 -205q-43 -124 -43 -272z" />
<glyph unicode="R" horiz-adv-x="1385" d="M103 0v41q0 34 41 36q1 0 7 0.5t12 0.5q26 0 46 1q10 1 33 1.5t34 0.5v1287q-11 0 -34 0.5t-33 1.5q-20 1 -46 1q-6 0 -12 0.5t-7 0.5q-41 2 -41 36v41h173h352q251 0 375 -97q123 -96 123 -284q0 -84 -28 -152t-83 -120q-57 -54 -129 -85q-75 -32 -171 -43 q24 -15 44 -41l435 -548q7 0 19 -0.5t18 -0.5q7 0 16 -0.5t11 -0.5h13q41 -2 41 -36v-41h-54h-81h-11q-16 0 -28 6q-13 6 -23 21l-464 587q-19 24 -37 32q-19 9 -62 9h-172v-574q11 0 34 -0.5t33 -1.5q20 -1 46 -1q6 0 12 -0.5t7 -0.5q41 -2 41 -36v-41h-173h-104h-173z M380 733h235q94 0 172 23q77 22 129 66q53 44 80 104q28 62 28 136q0 155 -101 229q-102 75 -295 75h-248v-633z" />
<glyph unicode="S" horiz-adv-x="1052" d="M117 63v28v25v272h50q41 0 44 -50q0 -15 1 -37q0 -2 5 -83q2 -30 4 -91q116 -56 288 -56q85 0 154 26q68 26 115 71t71 107t24 133q0 77 -31 126q-32 51 -82 83q-51 33 -117 56q-78 26 -134 44q-67 20 -133 48q-70 29 -117 68q-51 42 -82 103q-32 62 -32 156q0 70 28 140 q27 68 81 119q55 52 132 83t179 31q181 0 374 -84v-297h-50q-41 0 -44 50q0 4 -1 26t-3 69t-5 97q-122 52 -271 52q-80 0 -139 -22q-60 -22 -101 -62q-40 -38 -61 -90q-21 -51 -21 -107q0 -75 31 -122q31 -48 82 -82q49 -33 117 -57q57 -20 134 -45q61 -20 133 -50 q66 -28 117 -68q50 -39 82 -101q32 -61 32 -149q0 -90 -32 -172q-31 -80 -90 -139t-146 -94q-84 -34 -196 -34q-202 0 -390 79z" />
<glyph unicode="T" horiz-adv-x="1275" d="M62 1148v301h14h30h1067h29h15v-301h-50q-41 0 -44 50q0 2 -1 18.5t-3 58t-4 85.5h-422v-1279q11 0 34 -0.5t33 -1.5q20 -1 45 -1q6 0 12.5 -0.5t7.5 -0.5q40 -1 40 -36v-41h-172h-105h-172v41q0 35 40 36q1 0 7.5 0.5t12.5 0.5q25 0 45 1q10 1 33 1.5t34 0.5v1279h-424 q-2 -40 -4 -78.5t-3 -58t-1 -25.5q-3 -50 -44 -50h-50z" />
<glyph unicode="U" horiz-adv-x="1539" d="M48 1408v41h173h105h198v-41q0 -35 -40 -36h-9q-9 -1 -17 -1q-34 0 -58 -1q-12 -1 -37 -1.5t-37 -0.5v-814q0 -102 30 -189q30 -88 87 -152q55 -62 140 -101q81 -37 187 -37q104 0 186 36q83 36 140 101q58 66 88 152q30 87 30 189v815q-12 0 -36.5 1t-36.5 1 q-24 1 -59 1q-8 0 -17 1h-9q-40 1 -40 36v41h198h104h173v-41q0 -34 -41 -36q-1 0 -7 -0.5t-12 -0.5q-26 0 -46 -1q-10 -1 -33 -1.5t-34 -0.5v-815q0 -119 -38 -224q-37 -101 -109 -181q-69 -77 -173 -121q-103 -44 -228 -44q-126 0 -229 44q-104 44 -173 121 q-72 80 -109 181q-38 105 -38 224v815q-11 0 -34 0.5t-33 1.5q-20 1 -46 1q-6 0 -12 0.5t-7 0.5q-41 2 -41 36z" />
<glyph unicode="V" horiz-adv-x="1563" d="M50 1408v41h86h84h219v-41q0 -34 -41 -36q-1 0 -6.5 -0.5t-10.5 -0.5q-21 0 -39 -1q-9 -1 -30.5 -1.5t-32.5 -0.5l472 -1149q20 -48 32 -100q13 60 29 100l471 1149q-11 0 -32 0.5t-30 1.5q-18 1 -40 1q-5 0 -10.5 0.5t-6.5 0.5q-40 1 -40 36v41h216h4h82h86v-41 q0 -34 -41 -36h-5q-4 -1 -8 -1q-16 0 -27 -1q-6 -1 -19 -1.5t-20 -0.5l-564 -1368h-93l-565 1368q-7 0 -20 0.5t-19 1.5q-11 1 -27 1q-4 0 -8 1h-5q-41 2 -41 36z" />
<glyph unicode="W" horiz-adv-x="2258" d="M50 1408v41h86h87h216v-41q0 -34 -41 -36q-1 0 -6.5 -0.5t-10.5 -0.5q-21 0 -40 -1q-10 -1 -31 -1.5t-32 -0.5l349 -1138q8 -28 11 -44q2 -10 5 -27t4 -22q1 4 5 22l6 27q4 22 12 44l410 1191q6 14 14 20q11 8 25 8h28q14 0 24 -8q9 -8 14 -20l410 -1191q2 -6 12 -43 q7 -28 11 -48l3 15t3.5 18t2.5 15q3 15 11 43l349 1138q-11 0 -33.5 0.5t-32.5 1.5q-19 1 -42 1q-5 0 -11 0.5t-7 0.5q-41 2 -41 36v41h216h6h80h86v-41q0 -35 -40 -36h-5q-5 -1 -8 -1q-14 0 -24 -1q-5 -1 -16.5 -1.5t-17.5 -0.5l-431 -1368h-94l-428 1257q-9 28 -14 53 q-4 -17 -15 -53l-429 -1257h-93l-431 1368q-6 0 -17.5 0.5t-16.5 1.5q-10 1 -24 1q-4 0 -8 0.5t-5 0.5q-41 2 -41 36z" />
<glyph unicode="X" horiz-adv-x="1499" d="M91 0v41q0 34 41 36l5 1h9q16 0 28 1q6 1 20 1.5t21 0.5l466 662l-442 625q-7 0 -21 0.5t-20 1.5q-12 1 -28 1q-4 0 -9 1h-5q-41 2 -41 36v40h66h30h74h3h225v-40q0 -34 -41 -36q-1 0 -6 -0.5t-9 -0.5q-19 0 -37 -1q-10 -1 -30 -1.5t-31 -0.5l399 -574l6 15q1 3 9 16 l383 543q-12 0 -34 0.5t-32 1.5q-19 1 -43 1q-5 0 -11 0.5t-7 0.5q-40 1 -40 36v40h233h7h62h38h65v-40q0 -35 -40 -36h-5q-5 -1 -9 -1q-16 0 -28 -1q-6 -1 -20 -1.5t-21 -0.5l-443 -619l465 -668q6 0 18.5 -0.5t18.5 -1.5q11 -1 25 -1h9l4 -1q41 -2 41 -36v-41h-60h-31h-72 h-10h-220v41q0 34 41 36q1 0 6 0.5t9 0.5q20 0 38 1q9 1 30 1.5t32 0.5l-418 612q-4 -13 -15 -29l-409 -583q11 0 33.5 -0.5t32.5 -1.5q19 -1 42 -1q5 0 11 -0.5t7 -0.5q41 -2 41 -36v-41h-233h-11h-58h-37h-67z" />
<glyph unicode="Y" horiz-adv-x="1408" d="M50 1408v41h65h11h80h17h205v-41q0 -35 -40 -36q-1 0 -6.5 -0.5t-9.5 -0.5q-19 0 -36 -1q-9 -1 -27 -1.5t-28 -0.5l380 -610q14 -22 25 -46q12 -25 18 -44q4 12 19 44q14 30 24 46l380 610q-10 0 -28.5 0.5t-27.5 1.5q-17 1 -36 1q-4 0 -9 0.5t-6 0.5q-41 2 -41 36v41 h206h15h81h11h65v-41q0 -34 -41 -36q-18 -1 -43 -2.5t-32 -1.5l-485 -770v-517q11 0 34 -0.5t33 -1.5q20 -1 46 -1q6 0 12 -0.5t7 -0.5q41 -2 41 -36v-41h-173h-105h-172v41q0 35 40 36q1 0 7.5 0.5t12.5 0.5q25 0 45 1q10 1 33 1.5t34 0.5v517l-485 770q-8 0 -32.5 1.5 t-42.5 2.5q-41 2 -41 36z" />
<glyph unicode="Z" horiz-adv-x="1297" d="M105 0v38q0 18 13 37l921 1287h-799q0 -12 -6 -85q-4 -58 -5 -62q-3 -23 -3 -27q-3 -49 -44 -49h-50v310h1047v-36q0 -21 -15 -42l-919 -1284h818q1 35 5 85q3 40 6 62q2 15 2 27q3 49 45 49h49v-310h-1065z" />
<glyph unicode="[" horiz-adv-x="551" d="M174 -270v1823h326v-36q0 -15 -9 -22q-10 -8 -23 -8h-211v-1691h211q13 0 23 -8q9 -8 9 -21v-37h-326z" />
<glyph unicode="\" horiz-adv-x="848" d="M67 1490h42q40 0 55 -38l637 -1538h-40q-16 0 -34 10t-25 30z" />
<glyph unicode="]" horiz-adv-x="548" d="M51 -233q0 13 8 21t23 8h211v1691h-211q-15 0 -23 8t-8 22v36h325v-1823h-325v37z" />
<glyph unicode="^" horiz-adv-x="931" d="M86 819l349 630h62l349 -630h-70q-10 0 -20 7q-9 6 -14 17l-246 446q-3 6 -9 17t-8 16q-7 14 -12 32l-12 -33q-3 -8 -16 -32l-245 -446q-3 -5 -14 -16q-8 -8 -21 -8h-73z" />
<glyph unicode="_" horiz-adv-x="1168" d="M179 -210h807v-70h-807v70z" />
<glyph unicode="`" horiz-adv-x="556" d="M120 1465h94q26 0 37 -7t23 -25l161 -244h-55q-12 0 -21 3t-17 14z" />
<glyph unicode="a" horiz-adv-x="1050" d="M82 247q0 65 37 120q38 56 115 96q79 41 202 65q126 25 296 29v107q0 141 -61 217t-181 76q-76 0 -125 -20q-49 -19 -87 -45q-38 -25 -59 -45q-23 -21 -38 -21q-19 0 -30 19l-18 29q81 81 168 121q90 41 200 41q80 0 143 -26q60 -25 102 -75q40 -47 61 -117 q20 -66 20 -154v-584q32 -2 47 -2q8 0 19 -0.5t14 -0.5h15q40 -1 40 -36v-41h-135h-37h-2q-29 0 -37 29l-15 130q-49 -47 -83 -74q-40 -32 -87 -55q-47 -24 -97 -35q-48 -11 -115 -11q-52 0 -101 15t-87 47t-61 82q-23 51 -23 119zM176 251q0 -50 17 -89q15 -34 45 -61 q28 -25 64 -35q37 -12 77 -12q61 0 109 13q51 14 92 36q37 20 79 55q40 33 73 68v266q-148 -5 -250 -22q-102 -18 -173 -49q-67 -30 -101 -73q-32 -41 -32 -97z" />
<glyph unicode="b" horiz-adv-x="1120" d="M44 1449v41h148h97l1 -649q66 88 157 142q88 52 201 52q187 0 292 -129t105 -390q0 -109 -29 -208q-28 -97 -86 -168q-58 -72 -140 -112q-84 -41 -190 -41q-138 0 -408 57v52v1313q-9 0 -25.5 0.5t-24.5 1.5q-15 1 -31 1q-3 0 -8 0.5t-7 0.5h-11q-41 2 -41 36zM289 107 q211 -43 293 -43q92 0 157 32q70 34 114 93q46 62 68 143q24 90 24 184q0 226 -85 334q-84 107 -241 107q-101 0 -183 -52q-83 -53 -147 -145v-653z" />
<glyph unicode="c" horiz-adv-x="940" d="M79 510q0 114 31 213q30 97 89 166q58 68 145 108q83 38 196 38q37 0 107 -16q81 -19 125 -32l53 -16v-256h-50q-41 0 -44 49q0 1 -0.5 4t-1 9t-0.5 12q-1 7 -2.5 26.5t-2.5 30.5q-6 67 -6 78q-96 34 -173 34q-90 0 -156 -31q-70 -33 -115 -89q-47 -59 -71 -142 q-25 -86 -25 -186q0 -109 25 -190q26 -85 71 -140q47 -57 112 -87q64 -29 145 -29q77 0 124 17q55 20 82 38q35 24 51 38q18 17 30 17q14 0 21 -10l26 -33q-25 -32 -59 -57q-34 -26 -81 -46q-49 -21 -98 -31q-50 -10 -110 -10q-99 0 -178 35q-81 36 -138 102q-59 68 -90 165 q-32 95 -32 221z" />
<glyph unicode="d" horiz-adv-x="1147" d="M78 507q0 110 29 208q28 97 86 168q58 72 140 112q84 41 190 41q104 0 179 -38q77 -39 132 -112v523q-9 0 -25.5 0.5t-24.5 1.5q-15 1 -31 1q-3 0 -8.5 0.5t-7.5 0.5h-11q-40 1 -40 36v41h148h97v-1409q8 0 22.5 -0.5t21.5 -1.5q13 -1 28 -1q3 0 7.5 -0.5t6.5 -0.5h10 q41 -2 41 -36v-10v-31h-137h-54q-25 0 -29 27l-10 160q-67 -91 -159 -146q-90 -54 -203 -54q-188 0 -293 130q-105 131 -105 390zM178 507q0 -227 84 -334t241 -107q102 0 184 52q83 53 147 145v538q-60 87 -131 123q-72 36 -162 36q-91 0 -158 -33q-68 -33 -113 -93 q-48 -64 -69 -143q-23 -86 -23 -184z" />
<glyph unicode="e" horiz-adv-x="1017" d="M79 530q0 111 31 203q31 91 90 159q58 67 145 105t194 38q88 0 159 -29q73 -30 127 -87t84 -140t30 -190q0 -22 -7 -31q-6 -8 -21 -8h-736v-20q0 -114 27 -201q28 -89 76 -146q50 -60 118 -89q67 -29 156 -29q78 0 133 16q53 15 95 38q35 19 61 38q23 17 32 17 q14 0 21 -10l27 -33q-23 -29 -65 -57q-37 -25 -91 -46q-42 -17 -106 -30q-52 -11 -114 -11q-105 0 -191 36q-84 35 -147 106q-62 69 -95 171q-33 101 -33 230zM179 612h672q0 81 -23 147q-23 65 -63 110t-98 69q-59 25 -127 25q-76 0 -142 -25q-62 -24 -108 -71 q-45 -46 -73 -110q-29 -66 -38 -145z" />
<glyph unicode="f" horiz-adv-x="784" d="M92 947v40h173v129q0 86 23 153t63 110q41 43 99 66q57 22 128 22q36 0 64 -5q34 -7 56 -16l-3 -47q-1 -15 -19 -15q-5 0 -33 4q-21 3 -52 3q-51 0 -93 -15q-43 -16 -73 -48q-33 -36 -48 -85q-17 -54 -17 -130v-126h331v-73h-329v-833q11 0 34 -0.5t33 -1.5q20 -1 46 -1 q6 0 12 -0.5t7 -0.5q41 -2 41 -36v-41h-173h-93h-173v41q0 34 41 36q1 0 7 0.5t12 0.5q24 0 44 1q10 1 32 1.5t33 0.5v831l-143 10q-30 2 -30 25z" />
<glyph unicode="g" horiz-adv-x="1057" d="M62 -108q0 80 54 140q52 58 146 90q-52 18 -81 50q-30 33 -30 91q0 19 8 45q8 25 24 47q13 18 40 43q20 19 53 37q-72 42 -113 112q-40 68 -40 163q0 72 26 133q25 58 74 103q47 43 115 67q65 23 149 23q69 0 124 -16q58 -17 102 -46h261v-34q0 -26 -29 -28l-154 -11 q29 -40 44 -87q15 -48 15 -104q0 -74 -27 -134q-28 -61 -74 -102q-48 -42 -114 -66t-148 -24q-87 0 -159 27q-44 -24 -68 -59q-24 -34 -24 -65q0 -44 30 -68q29 -23 82 -34q54 -11 115 -14q20 -1 64 -3.5t68 -3.5q69 -3 133 -12q59 -8 115 -33q53 -23 82 -64q30 -42 30 -110 q0 -64 -31 -122q-32 -59 -92 -104t-145 -72q-86 -27 -190 -27q-110 0 -189 22q-78 22 -135 60q-57 39 -83 86q-28 51 -28 104zM150 -96q0 -44 23 -84q21 -37 67 -66q45 -29 109 -45q63 -16 149 -16q81 0 145 17q67 18 116 49q48 31 78 76q28 43 28 96q0 50 -25 78 q-26 29 -67 45q-44 17 -97 23q-74 8 -114 10q-20 1 -60.5 3t-60.5 3q-59 3 -112 12q-37 -14 -72 -35q-33 -20 -57 -45q-23 -25 -37 -55q-13 -29 -13 -66zM213 708q0 -58 18 -105t54 -81q33 -31 87 -52q50 -19 115 -19q67 0 117 19q55 21 86 52q35 35 53 81t18 105 q0 54 -19 105q-18 47 -53 81q-36 34 -86 52q-54 19 -116 19q-61 0 -115 -19q-52 -18 -87 -52q-37 -35 -54 -81q-18 -48 -18 -105z" />
<glyph unicode="h" horiz-adv-x="1277" d="M100 0v41q0 34 41 36h13l34 2q9 1 29 1.5t31 0.5v1328q-9 0 -25.5 0.5t-24.5 1.5q-15 1 -31 1q-3 0 -8 0.5t-7 0.5h-11q-41 2 -41 36v41h148h98v-645q72 88 161 139q90 51 203 51q86 0 148 -26q63 -26 106 -77t64 -121t21 -160v-570q9 0 25.5 -0.5t24.5 -1.5q15 -1 31 -1 q3 0 8 -0.5t7 -0.5h11q41 -2 41 -36v-41h-148h-97v651q0 144 -66 225t-200 81q-102 0 -187 -51q-84 -50 -153 -142v-683q9 0 25 -0.5t24 -1.5q15 -1 31 -1q3 0 8.5 -0.5t7.5 -0.5h11q40 -1 40 -36v-41h-147h-98h-148z" />
<glyph unicode="i" horiz-adv-x="578" d="M102 0v41q0 34 41 36h13q2 0 6.5 0.5t13 1t14.5 0.5q9 1 29 1.5t31 0.5v857q-9 0 -25.5 0.5t-24.5 1.5q-15 1 -31 1q-3 0 -8 0.5t-7 0.5h-11q-41 2 -41 36v40h148h98v-937q9 0 25.5 -0.5t24.5 -1.5q15 -1 31 -1q3 0 8 -0.5t7 -0.5h11q41 -2 41 -36v-41h-148h-98h-148z M209 1370q0 17 8 35q9 20 19 30q11 11 29 19q15 7 34 7q20 0 35 -7q18 -8 29 -19q12 -12 20 -30t8 -35q0 -16 -8 -34q-7 -15 -20 -28q-12 -12 -29 -20q-15 -7 -35 -7q-19 0 -34 7q-17 8 -29 20t-19 28q-8 18 -8 34z" />
<glyph unicode="j" horiz-adv-x="516" d="M7 -356l5 49q2 12 15 12q10 0 23 -4t40 -4q82 0 123 45q40 44 40 128v1068q-9 0 -25.5 0.5t-24.5 1.5q-15 1 -31 1q-3 0 -8 0.5t-7 0.5h-11q-41 2 -41 36v41h148h97v-1149q0 -53 -15 -98t-46 -79q-29 -31 -76 -52q-44 -19 -107 -19q-26 0 -53 5q-16 3 -46 17zM212 1370 q0 20 7 35q8 18 20 30q11 11 28 19q15 7 35 7t35 -7q18 -8 29 -19q12 -12 20 -30q7 -15 7 -35q0 -19 -7 -34t-20 -28q-12 -12 -29 -20q-15 -7 -35 -7t-35 7t-28 20t-20 28t-7 34z" />
<glyph unicode="k" horiz-adv-x="1156" d="M100 0v41q0 34 41 36h13l34 2q9 1 29 1.5t31 0.5v1328q-9 0 -25.5 0.5t-24.5 1.5q-15 1 -31 1q-3 0 -8 0.5t-7 0.5h-11q-41 2 -41 36v41h148h98v-908h47q15 0 27 4q13 4 28 19l353 335q-14 0 -26.5 0.5t-18 1t-6.5 0.5q-41 2 -41 36v40h168h40h108v-40q0 -34 -41 -36h-4 q-5 -1 -9 -1q-3 0 -12 -0.5t-14 -0.5q-10 -1 -34 -1l-365 -347l-19 -19q-9 -9 -21 -15q13 -6 28 -19q16 -16 24 -25l398 -434q6 0 17.5 -0.5t16.5 -0.5q6 0 14 -0.5t9 -0.5q2 0 6 -0.5t6 -0.5h9q40 -1 40 -36v-41h-44h-79h-6q-15 0 -26 6q-12 7 -23 18l-428 458 q-21 21 -31 25q-18 7 -45 7h-46v-433q9 0 25 -0.5t24 -1.5q15 -1 31 -1q3 0 8.5 -0.5t7.5 -0.5h11q40 -1 40 -36v-41h-147h-98h-148z" />
<glyph unicode="l" horiz-adv-x="572" d="M100 0v41q0 34 41 36h13l34 2q9 1 29 1.5t31 0.5v1328q-9 0 -25.5 0.5t-24.5 1.5q-15 1 -31 1q-3 0 -8 0.5t-7 0.5h-11q-41 2 -41 36v41h148h98v-1409q9 0 25.5 -0.5t24.5 -1.5q15 -1 31 -1q3 0 8 -0.5t7 -0.5h11q40 -1 40 -36v-41h-147h-98h-148z" />
<glyph unicode="m" horiz-adv-x="1809" d="M105 0v41q0 34 41 36h13l34 2q9 1 29 1.5t31 0.5v857q-9 0 -25.5 0.5t-24.5 1.5q-15 1 -31 1h-15q-2 0 -6 0.5t-5 0.5q-41 2 -41 36v40h148h54q25 0 30 -25l10 -147q35 49 63 77q34 34 72 59q39 26 82 39q45 14 92 14q111 0 178 -65q66 -64 90 -181q18 61 52 110 q33 46 76 76q45 31 93 45q51 15 104 15q77 0 136 -25q63 -27 103 -74q43 -51 65 -121t22 -164v-570q9 0 25.5 -0.5t24.5 -1.5q15 -1 31 -1q3 0 8.5 -0.5t7.5 -0.5h11q40 -1 40 -36v-41h-148h-97v651q0 151 -64 228q-64 78 -185 78q-55 0 -102 -19q-50 -20 -86 -58 q-36 -37 -59 -96q-22 -56 -22 -133v-570q9 0 25.5 -0.5t24.5 -1.5q15 -1 31 -1q3 0 8 -0.5t7 -0.5h11q41 -2 41 -36v-41h-148h-97v651q0 149 -60 228q-59 78 -173 78q-83 0 -153 -49q-71 -50 -126 -138v-689q9 0 25 -0.5t24 -1.5q15 -1 31 -1q3 0 8.5 -0.5t7.5 -0.5h11 q40 -1 40 -36v-41h-147h-98h-148z" />
<glyph unicode="n" horiz-adv-x="1288" d="M105 0v41q0 34 41 36h13l34 2q9 1 29 1.5t31 0.5v857q-9 0 -25.5 0.5t-24.5 1.5q-15 1 -31 1h-15q-2 0 -6 0.5t-5 0.5q-41 2 -41 36v40h148h54q25 0 30 -25l10 -153q67 86 162 141q93 54 206 54q86 0 148 -26q63 -26 106 -77t64 -121t21 -160v-570q9 0 25.5 -0.5 t24.5 -1.5q15 -1 31 -1q3 0 8.5 -0.5t7.5 -0.5h10q41 -2 41 -36v-41h-148h-97v651q0 144 -66 225t-200 81q-101 0 -187 -51q-84 -50 -153 -142v-683q9 0 25.5 -0.5t24.5 -1.5q15 -1 31 -1q3 0 8 -0.5t7 -0.5h11q40 -1 40 -36v-41h-147h-98h-148z" />
<glyph unicode="o" horiz-adv-x="1086" d="M79 510q0 121 31 217t91 165q59 68 147 106q86 37 196 37t196 -37t146 -106q58 -67 90 -165q32 -99 32 -217t-32 -216q-32 -99 -90 -165q-59 -67 -146 -105q-86 -37 -196 -37t-196 37q-89 38 -147 105q-59 68 -91 165q-31 94 -31 216zM179 510q0 -101 23 -185 q22 -79 69 -141q43 -56 114 -89q69 -32 159 -32t159 32q71 33 114 89q46 60 68 141t22 185q0 103 -22 184q-23 83 -68 142t-114 91q-66 31 -159 31t-159 -31q-69 -32 -114 -91q-47 -61 -69 -142q-23 -84 -23 -184z" />
<glyph unicode="p" horiz-adv-x="1122" d="M43 -320q0 34 41 36q2 0 6 0.5t7 0.5q16 0 33 1q27 2 61 3v1217q-9 0 -25.5 0.5t-24.5 1.5q-15 1 -31 1h-15q-2 0 -6 0.5t-5 0.5q-41 2 -41 36v41h148h53q14 0 22 -6t9 -20l9 -157q68 92 158 146t204 54q187 0 292 -130t105 -390q0 -109 -29 -208q-29 -97 -86 -168 q-59 -73 -139 -112q-84 -41 -189 -41q-103 0 -181 38q-76 37 -131 112v-416q9 0 25.5 -0.5t24.5 -1.5q15 -1 31 -1q3 0 8 -0.5t7 -0.5t6 -0.5t5 -0.5q41 -2 41 -36v-40h-148h-97h-148v40zM288 223q57 -87 130 -124q69 -35 162 -35t158 32q68 33 113 93q46 62 68 143 q24 90 24 184q0 228 -84 334q-84 107 -241 107q-102 0 -184 -52q-83 -53 -146 -147v-535z" />
<glyph unicode="q" horiz-adv-x="1102" d="M83 506q0 109 29 208q28 97 86 168q58 72 140 112q84 41 190 41q138 0 408 -57v-52v-1206q9 0 25.5 -0.5t24.5 -1.5q30 -2 31 -2h15q2 0 6 -0.5t5 -0.5q41 -2 41 -36v-40h-148h-97v27v-27h-148v40q0 35 40 36q2 0 6 0.5t7 0.5q17 0 34 1q26 1 60 3v461q-66 -88 -157 -142 q-88 -52 -201 -52q-187 0 -292 129t-105 390zM183 506q0 -228 84 -334q84 -107 241 -107q102 0 184 52q83 53 147 145v653q-211 43 -293 43q-93 0 -158 -32q-68 -33 -113 -93q-48 -64 -69 -143q-23 -86 -23 -184z" />
<glyph unicode="r" horiz-adv-x="892" d="M106 0v41q0 34 40 36q4 0 107 4v857q-103 4 -107 4q-40 2 -40 36v41h147h52q18 0 25 -7q6 -6 8 -25l9 -215q49 124 131 194t201 70q46 0 85 -9q38 -10 74 -29l-13 -67q-3 -17 -21 -17q-4 0 -17 5t-28 9q-13 4 -42 9q-21 4 -56 4q-117 0 -190 -72q-73 -70 -120 -206v-582 q103 -4 107 -4q41 -2 41 -36v-41h-148h-98h-147z" />
<glyph unicode="s" horiz-adv-x="875" d="M134 760q0 54 24 104q25 52 67 88q46 40 106 61q62 22 140 22q109 0 270 -54v-244h-49q-42 0 -45 50q0 1 -0.5 4t-1 9t-0.5 11q-1 7 -2.5 24.5t-2.5 27.5q-4 42 -5 71q-83 27 -162 27q-57 0 -101 -16q-49 -18 -78 -43q-33 -27 -50 -61q-18 -35 -18 -75q0 -46 25 -79 q24 -32 64 -54q41 -23 91 -39q34 -11 104 -33q49 -15 104 -36q49 -19 91 -50q40 -30 64 -73q25 -45 25 -104q0 -67 -24 -124q-23 -55 -70 -99q-46 -43 -112 -67t-152 -24q-155 0 -301 56v249h50q41 0 44 -50q0 -1 0.5 -4t1 -9t0.5 -11q1 -7 2.5 -25t2.5 -29q4 -45 5 -73 q83 -33 199 -33q64 0 114 18q47 17 82 49q34 31 50 72t16 88q0 50 -24 85q-24 32 -65 57q-40 24 -90 40q-51 16 -105 33q-62 19 -104 35q-49 19 -91 50q-40 29 -64 72q-25 44 -25 106z" />
<glyph unicode="t" horiz-adv-x="728" d="M35 938v38l174 12l24 365q1 8 8 16q6 7 18 7h46v-389h321v-73h-321v-691q0 -41 11 -72t30 -50t44 -28q28 -10 55 -10q36 0 64 11q26 10 46 24q27 19 32 23q13 11 19 11q10 0 17 -10l26 -43q-39 -43 -99 -69q-61 -26 -124 -26q-102 0 -161 57q-58 57 -58 177v696h-147 q-9 0 -18 7q-7 6 -7 17z" />
<glyph unicode="u" horiz-adv-x="1225" d="M41 978v41h148h97v-651q0 -144 66 -225q67 -82 200 -82q99 0 186 51q85 50 155 141v685q-9 0 -25 0.5t-24 1.5q-15 1 -31 1h-16q-2 0 -6 0.5t-5 0.5q-40 1 -40 36v41h147h98v-938q9 0 25.5 -0.5t24.5 -1.5q15 -1 31 -1q3 0 8 -0.5t7 -0.5h11q41 -2 41 -36v-41h-148h-54 q-27 0 -29 27l-10 151q-69 -86 -163 -141q-91 -53 -207 -53q-87 0 -148 26q-64 27 -106 77q-43 51 -64 121q-21 71 -21 160v570q-9 0 -25.5 0.5t-24.5 1.5q-15 1 -31 1h-16q-2 0 -5.5 0.5t-4.5 0.5q-41 2 -41 36z" />
<glyph unicode="v" horiz-adv-x="1186" d="M36 978v41h74h77h206v-41q0 -34 -41 -36q-2 0 -6 -0.5t-7 -0.5q-16 0 -33 -1q-9 -1 -29.5 -1.5t-30.5 -0.5l312 -748q12 -28 16 -45q0 -2 2 -8.5t3 -12.5t3 -13t2 -9q3 14 11 44q5 20 15 44l314 748q-9 0 -25.5 0.5t-24.5 1.5q-15 1 -31 1h-14q-2 0 -6 0.5t-5 0.5 q-41 2 -41 36v41h205h74h78v-41q0 -34 -41 -36q-1 0 -4.5 -0.5t-5.5 -0.5h-23q-10 0 -38 -2l-396 -939h-86l-397 939l-67 3q-40 1 -40 36z" />
<glyph unicode="w" horiz-adv-x="1719" d="M36 978v41h81h75h201v-41q0 -34 -41 -36q-2 0 -6 -0.5t-7 -0.5q-16 0 -33 -1q-9 -1 -29.5 -1.5t-30.5 -0.5l239 -748q4 -14 11 -45q2 -11 4 -21l3 -15t1 -7q1 4 12 43q1 2 14 45l273 811q8 23 29 23h40q22 0 30 -23l269 -811q18 -57 25 -89q2 7 4.5 22t3.5 22q2 9 13 45 l240 748q-9 0 -25.5 0.5t-24.5 1.5q-15 1 -30 1h-15q-2 0 -6 0.5t-5 0.5q-41 2 -41 36v41h199h73h85v-41q0 -35 -40 -36q-1 0 -5 -0.5t-6 -0.5h-23q-10 0 -38 -2l-314 -939h-72q-16 0 -24 22l-279 827q-2 5 -5 15.5t-4 15.5q-6 20 -8 30l-6 -30q-1 -3 -9 -31l-283 -827 q-6 -22 -24 -22h-69l-314 939q-5 0 -15 0.5t-14 0.5q-5 0 -11.5 0.5t-7.5 0.5q-2 0 -6 0.5t-5 0.5h-9q-40 1 -40 36z" />
<glyph unicode="x" horiz-adv-x="1156" d="M98 0v41q0 34 41 36l7 1q6 0 19.5 0.5t29.5 0.5l313 442l-298 419q-41 2 -62 2q-41 2 -41 36v41h46h94h1h7h155v-41q0 -34 -41 -36q-1 0 -6.5 -0.5t-17.5 -1t-25 -0.5l258 -374q4 17 18 37l239 337q-14 0 -27.5 0.5t-20 1t-7.5 0.5q-40 1 -40 36v41h155h10h91h47v-41 q0 -34 -41 -36l-63 -3l-299 -413l315 -447q16 0 29.5 -0.5t19.5 -0.5l7 -1q40 -1 40 -36v-41h-94h-54h-154v41q0 35 40 36q1 0 7.5 0.5t20 1t28.5 0.5l-273 397q-4 -20 -15 -35l-257 -362q17 0 31.5 -0.5t21 -1t7.5 -0.5q41 -2 41 -36v-41h-155h-54h-94z" />
<glyph unicode="y" horiz-adv-x="1183" d="M35 978v41h68h81h1h207v-41q0 -34 -41 -36q-2 0 -6 -0.5t-7 -0.5q-16 0 -33 -1q-9 -1 -29.5 -1.5t-30.5 -0.5l319 -736q4 -10 10 -32q3 -10 9 -32q2 7 11 32q2 5 6 16t6 16l314 736q-9 0 -25 0.5t-24 1.5q-15 1 -31 1h-14q-2 0 -6 0.5t-5 0.5q-41 2 -41 36v41h205h75h77 v-41q0 -34 -41 -36q-1 0 -4.5 -0.5t-5.5 -0.5h-23q-12 0 -38 -2l-551 -1267q-5 -13 -15 -23q-11 -9 -29 -9h-69l179 398l-396 901q-62 3 -63 3q-40 1 -40 36z" />
<glyph unicode="z" horiz-adv-x="1021" d="M112 0v39q0 17 15 38l640 865h-516q-1 -26 -5 -67q-1 -10 -2.5 -27t-2.5 -23q0 -5 -0.5 -10t-1 -8t-0.5 -4q-3 -50 -44 -50h-50v257v9h737v-41q0 -21 -15 -39l-638 -862h559q1 22 5 62q1 12 2.5 28.5t1.5 18.5q0 4 0.5 9t1 8t0.5 4q3 50 44 50h10h40v-257h-37h-17h-727z " />
<glyph unicode="{" horiz-adv-x="571" d="M77 610v63q37 0 65 11q32 13 51 32q20 20 32 49t12 62q0 52 -10 110q-10 57 -21 106q-12 51 -21 107q-10 60 -10 112q0 61 20 115q21 57 56 93q37 39 91 61q53 22 121 22h56v-43q0 -11 -9 -17t-16 -6h-34q-43 0 -81 -16q-36 -15 -62 -44t-41 -69t-15 -91q0 -59 9 -114 q9 -54 21 -109q8 -36 20 -108q10 -60 10 -108q0 -39 -13 -69q-14 -34 -34 -56q-18 -21 -48 -39q-24 -15 -57 -23q31 -6 57 -22q28 -17 48 -40t34 -55q13 -30 13 -69q0 -48 -10 -108q-12 -72 -20 -108q-12 -53 -21 -110q-9 -56 -9 -113q0 -50 15 -91q15 -40 41 -69t62 -44 q38 -16 81 -16h34q7 0 16 -6t9 -17v-43h-56q-68 0 -121 22q-54 22 -91 61q-35 36 -56 93q-20 54 -20 116q0 51 10 111q9 56 21 107q11 50 21 106q10 58 10 110q0 33 -12 62t-32 49q-19 19 -51 32q-28 11 -65 11z" />
<glyph unicode="|" horiz-adv-x="425" d="M174 -360v1913h77v-1913h-77z" />
<glyph unicode="}" horiz-adv-x="569" d="M52 -227q0 11 8 17t18 6h34q42 0 80 16q36 15 62 44t41 69q15 41 15 91q0 58 -9 113q-12 74 -20 110q-12 54 -21 108t-9 108q0 37 12 69q12 31 33 55q19 22 49 40q26 16 56 22q-31 8 -56 23q-32 20 -49 39q-21 24 -33 56q-12 31 -12 69q0 54 9 108t21 108q9 39 20 109 q9 55 9 114q0 51 -15 91t-41 69t-62 44q-38 16 -80 16h-34q-10 0 -18 6t-8 17v43h57q68 0 121 -22q54 -22 91 -61q35 -36 56 -93q19 -53 19 -115q0 -58 -9 -112q-9 -56 -21 -107q-11 -49 -21 -106q-10 -58 -10 -110q0 -36 11 -62q12 -29 32 -49q18 -18 51 -32q26 -11 65 -11 v-63q-39 0 -65 -11q-33 -14 -51 -32q-20 -20 -32 -49q-11 -26 -11 -62q0 -52 10 -110q10 -56 21 -106q12 -51 21 -107q9 -54 9 -111q0 -65 -19 -116q-21 -57 -56 -93q-37 -39 -91 -61q-53 -22 -121 -22h-57v43z" />
<glyph unicode="~" horiz-adv-x="1172" d="M135 444q0 56 17 105q16 47 47 84q29 34 75 56q45 21 102 21q51 0 108 -20q41 -15 108 -45q54 -25 103 -44q51 -20 95 -20q39 0 69 13q29 12 52 39q23 26 34 58t11 74h80q0 -58 -16 -105q-16 -45 -47 -83q-29 -35 -76 -57q-43 -20 -102 -20q-50 0 -107 20q-48 17 -109 44 q-80 35 -104 45q-51 20 -94 20q-38 0 -69 -14t-52 -38t-33 -59q-11 -33 -13 -74h-79z" />
<glyph unicode="&#xa1;" horiz-adv-x="452" d="M132 941q0 40 27 67t67 27q20 0 37 -7t30 -20q15 -15 21 -30q8 -19 8 -37q0 -19 -8 -38q-6 -15 -21 -30t-30 -21q-17 -7 -37 -7q-40 0 -67 28q-27 29 -27 68zM182 203q0 60 1 87t3 83q2 63 4 90q0 7 3 44.5t4 59.5h66q3 -60 6 -104q4 -62 5 -90q0 -14 0.5 -41.5 t1.5 -41.5q2 -54 2 -87v-563h-96v563z" />
<glyph unicode="&#xa2;" horiz-adv-x="953" d="M92 510q0 114 31 213q30 97 89 166q58 68 145 108q63 29 141 36v2l4 68l7 142q2 14 8 23q8 10 22 10h37l-6 -134l-1 -6l-5 -103q47 -4 107 -18q74 -18 118 -31l49 -15v-256h-49q-41 0 -44 49q0 1 -0.5 4.5t-1.5 9t-1 11.5q-1 7 -2.5 26.5t-2.5 30.5q-4 46 -5 78 q-95 34 -172 34v-1l-33 -673l-11 -219q11 -1 29 -1q76 0 123 17q55 20 82 38q35 24 51 38q18 17 30 17q14 0 21 -10l27 -33q-24 -30 -60 -57q-34 -26 -81 -46q-50 -22 -97 -31q-50 -10 -111 -10h-18l-10 -214q-2 -14 -9 -23t-22 -9h-37l6 120l7 133q-53 10 -94 28 q-81 36 -138 102q-60 69 -91 165q-32 95 -32 221zM191 510q0 -107 26 -191t71 -139q47 -58 111 -87q22 -10 52 -18l44 879q-51 -8 -93 -27q-70 -33 -115 -89q-47 -59 -71 -142q-25 -86 -25 -186z" />
<glyph unicode="&#xa3;" horiz-adv-x="1207" d="M76 647v33q0 14 10 26q9 10 27 10h169v301q0 98 26 177q26 81 80 142q52 59 132 94q78 34 183 34q80 0 138 -19q62 -20 104 -51q43 -32 76 -77q31 -43 54 -93l-39 -23q-10 -5 -22 -5q-18 0 -31 17q-28 42 -43 62q-21 28 -55 54q-32 24 -76 38q-42 13 -106 13 q-81 0 -139 -26q-61 -27 -101 -75q-42 -50 -62 -114t-20 -148v-301h490v-40q0 -12 -8 -20q-9 -9 -22 -9h-460v-311q0 -92 -37 -153q-39 -64 -101 -106q23 5 44 6q30 2 46 2h806v-41q0 -14 -13 -30q-11 -14 -32 -14h-994v67q42 16 68 33q32 20 58 51q27 32 41 69q15 40 15 93 v334h-206z" />
<glyph unicode="&#xa4;" horiz-adv-x="1089" d="M114 1066l50 51l158 -158q49 39 102 59q57 21 121 21q63 0 119 -21q59 -22 102 -57l158 157l50 -51l-157 -157q39 -49 59 -102q21 -57 21 -121q0 -63 -21 -119q-21 -57 -58 -102l158 -158l-51 -51l-158 158q-47 -38 -102 -58q-57 -21 -120 -21q-67 0 -120 20 q-55 21 -101 58l-159 -158l-50 51l157 157q-36 44 -57 102q-21 57 -21 121q0 66 20 119q22 59 57 102zM267 687q0 -59 22 -107q23 -51 60 -88q36 -36 88 -59q50 -22 108 -22t108 22q52 23 88 59q37 37 60 88q22 48 22 107q0 58 -22 108q-23 52 -60 89q-38 38 -88 60t-108 22 t-108 -22t-88 -60q-37 -37 -60 -89q-22 -50 -22 -108z" />
<glyph unicode="&#xa5;" horiz-adv-x="1144" d="M75 1449h81q26 0 40 -26l354 -681q2 -7 7.5 -19.5t7.5 -18.5q1 -3 5.5 -15.5t6.5 -19.5q9 35 26 73l353 681q4 9 15 19q8 7 24 7h82l-433 -818h355v-60h-374v-120h374v-60h-374v-391h-98v391h-374v60h374v120h-374v60h354z" />
<glyph unicode="&#xa6;" horiz-adv-x="413" d="M170 -360v795h77v-795h-77zM170 757v796h77v-796h-77z" />
<glyph unicode="&#xa7;" horiz-adv-x="949" d="M96 731q0 78 47 142q47 63 152 101q-56 37 -92 88q-35 50 -35 127q0 58 23 105q23 48 68 88q43 38 106 61q62 22 140 22q93 0 165 -27q74 -28 133 -81l-22 -35q-7 -13 -22 -13q-13 0 -29 12q-17 13 -48 29q-25 13 -71 28q-40 13 -104 13q-59 0 -104 -16q-47 -17 -79 -43 q-33 -27 -51 -63t-18 -76q0 -47 26 -82t67 -63q39 -26 95 -52q35 -16 109 -48q61 -26 110 -53q55 -30 95 -64q42 -36 67 -83q26 -49 26 -111q0 -86 -43 -148q-44 -63 -127 -99q55 -39 90 -89q34 -49 34 -121q0 -67 -24 -124q-23 -55 -70 -99q-46 -43 -112 -67t-152 -24 q-108 0 -185 34t-139 90l23 35q3 5 12 12q5 4 17 4q14 0 33 -16q19 -17 51 -36q26 -16 79 -35q45 -16 117 -16q65 0 112 17q48 17 83 48q32 28 51 72q18 42 18 90q0 52 -27 91q-27 40 -70 69q-46 32 -100 55q-101 44 -114 49q-59 24 -114 51q-58 28 -99 62q-44 37 -71 81 q-27 45 -27 108zM183 744q0 -41 20 -75q19 -32 55 -60q37 -29 79 -50q68 -34 94 -45q66 -28 100 -43q48 -21 97 -48q73 34 104 82q32 50 32 111q0 44 -19 82q-18 36 -49 64q-32 29 -73 51q-56 30 -87 44q-62 28 -94 41q-53 22 -92 43q-92 -39 -129 -87q-38 -49 -38 -110z " />
<glyph unicode="&#xa8;" horiz-adv-x="792" d="M139 1315q0 15 7 33q6 15 18 27t27 18q18 7 31 7t32 -7q16 -6 28 -18q9 -9 18 -27q7 -14 7 -33q0 -17 -7 -31q-9 -18 -18 -27q-11 -11 -28 -17q-19 -7 -32 -7q-14 0 -31 7t-27 17q-12 12 -18 27q-7 18 -7 31zM489 1315q0 15 7 33q5 13 19 27q13 13 26 18q18 7 32 7t33 -7 q14 -5 27 -18q9 -9 18 -27q7 -14 7 -33q0 -17 -7 -31q-9 -18 -18 -27q-11 -11 -27 -17q-19 -7 -33 -7q-15 0 -32 7q-15 6 -26 17q-14 14 -19 27q-7 18 -7 31z" />
<glyph unicode="&#xa9;" horiz-adv-x="1680" d="M101 725q0 101 27 196q28 98 74 177q47 81 115 149q69 69 150 116q83 49 176 75q91 26 197 26q105 0 196 -26q94 -27 177 -75q81 -47 150 -116q68 -68 115 -149q46 -79 74 -177q27 -95 27 -196q0 -103 -27 -197q-27 -96 -74 -176q-47 -81 -115 -149q-69 -69 -150 -116 q-83 -48 -177 -75q-91 -26 -196 -26t-196 26q-94 27 -177 75q-81 47 -150 116q-68 68 -115 149q-47 80 -74 176q-27 95 -27 197zM162 725q0 -141 53 -267q52 -124 144 -217q91 -93 216 -146q124 -53 265 -53q139 0 265 53q125 53 217 146q94 95 145 217q54 128 54 267 t-54 267q-54 125 -145 217t-217 147q-124 54 -265 54q-142 0 -265 -54q-126 -55 -216 -147q-92 -93 -144 -217q-53 -126 -53 -267zM401 726q0 100 35 187q34 85 95 146q60 60 147 95q84 34 186 34q50 0 98 -8q46 -8 82 -22q39 -16 71 -36q30 -19 65 -49l-25 -34 q-7 -11 -20 -11q-12 0 -28 13q-18 14 -46 30q-27 15 -76 29q-45 13 -117 13q-85 0 -154 -27q-71 -28 -120 -77q-48 -48 -76 -122q-27 -72 -27 -161q0 -92 27 -164q27 -71 75 -121q50 -51 114 -76q67 -26 145 -26q87 0 150 21t118 64q11 10 24 10q3 0 9 -2q3 -1 6 -4l32 -32 q-60 -60 -142 -96q-83 -36 -201 -36q-98 0 -181 33q-81 32 -141 94q-59 61 -92 146q-33 86 -33 189z" />
<glyph unicode="&#xaa;" horiz-adv-x="730" d="M117 1005q0 37 21 70q21 32 69 58q45 24 124 41q77 17 183 18v52q0 77 -35 118t-109 41q-48 0 -75 -11q-34 -13 -50 -24q-25 -16 -35 -25q-12 -11 -25 -11q-14 0 -22 14l-12 23q50 50 103 72q55 23 123 23q104 0 157 -60q53 -59 53 -160v-385h-33q-12 0 -16 4 q-8 8 -11 16l-10 69q-25 -24 -51 -42q-26 -19 -52 -30q-31 -14 -58 -19q-37 -7 -68 -7q-35 0 -65 9q-31 9 -54 28q-22 18 -38 48q-14 27 -14 70zM187 1009q0 -26 10 -48q8 -18 27 -33q13 -11 38 -18q21 -6 45 -6q36 0 63 7q30 8 53 20q27 14 48 31q30 24 43 37v142 q-169 -4 -249 -40q-78 -35 -78 -92z" />
<glyph unicode="&#xab;" horiz-adv-x="776" d="M103 525v14l247 387l31 -16q16 -10 16 -25q0 -13 -7 -24l-187 -300q-13 -20 -23 -30q12 -8 23 -28l187 -301q7 -11 7 -24q0 -15 -16 -25l-31 -16zM365 525v14l246 387l31 -16q16 -10 16 -25q0 -13 -7 -24l-187 -300q-13 -20 -23 -30q12 -8 23 -28l187 -301q7 -11 7 -24 q0 -15 -16 -25l-31 -16z" />
<glyph unicode="&#xac;" horiz-adv-x="1127" d="M127 649v75h849v-377h-84v302h-765z" />
<glyph unicode="&#xad;" horiz-adv-x="758" d="M142 566v83h476v-83h-476z" />
<glyph unicode="&#xae;" horiz-adv-x="1680" d="M101 725q0 101 27 196q28 98 74 177q47 81 115 149q69 69 150 116q83 49 176 75q91 26 197 26q105 0 196 -26q94 -27 177 -75q81 -47 150 -116q68 -68 115 -149q46 -79 74 -177q27 -95 27 -196q0 -103 -27 -197q-27 -96 -74 -176q-47 -81 -115 -149q-69 -69 -150 -116 q-83 -48 -177 -75q-91 -26 -196 -26t-196 26q-94 27 -177 75q-81 47 -150 116q-68 68 -115 149q-47 80 -74 176q-27 95 -27 197zM162 725q0 -141 53 -267q52 -124 144 -217q91 -93 216 -146q124 -53 265 -53q139 0 265 53q125 53 217 146q94 95 145 217q54 128 54 267 t-54 267q-54 125 -145 217t-217 147q-124 54 -265 54q-142 0 -265 -54q-126 -55 -216 -147q-92 -93 -144 -217q-53 -126 -53 -267zM566 272v907h253q155 0 237 -59q81 -58 81 -180q0 -102 -66 -168q-65 -65 -186 -82q13 -8 22 -17q12 -11 19 -24l292 -377h-82q-10 0 -18 3 t-14 14l-277 359q-7 12 -21 18q-16 7 -40 7h-113v-401h-87zM653 738h152q123 0 185 50q61 49 61 143q0 93 -56 137q-55 43 -176 43h-166v-373z" />
<glyph unicode="&#xaf;" horiz-adv-x="830" d="M136 1282v67h558v-67h-558z" />
<glyph unicode="&#xb0;" horiz-adv-x="841" d="M110 1161q0 65 24 120q24 56 65 97t98 65q55 23 121 23t121 -23t97 -65t66 -97q24 -56 24 -120q0 -63 -24 -119q-23 -53 -66 -96t-97 -66q-57 -24 -121 -24t-121 24q-55 23 -98 66q-41 41 -65 96q-24 56 -24 119zM182 1161q0 -46 19 -92q18 -43 50 -75t75 -50t92 -18 q48 0 92 18q41 17 74 50q32 32 50 75t18 92t-18 92q-17 42 -50 76q-31 32 -74 50q-46 19 -92 19t-92 -19q-45 -19 -75 -50q-33 -34 -50 -76q-19 -46 -19 -92z" />
<glyph unicode="&#xb1;" horiz-adv-x="1168" d="M103 82v75h962v-75h-962zM103 690v75h441v416h80v-416h441v-75h-441v-411h-80v411h-441z" />
<glyph unicode="&#xb2;" horiz-adv-x="704" d="M99 922v24q0 10 3 17q2 5 12 15l240 243q28 29 54 57q23 26 44 58q18 27 30 60q11 31 11 63q0 36 -12 63q-11 25 -32 44q-18 16 -47 26q-27 9 -55 9q-61 0 -100 -37q-37 -35 -58 -93q-7 -19 -27 -19q-1 0 -3.5 0.5t-4.5 0.5q-8 0 -10 1l-30 5q15 99 77 151q64 53 159 53 q46 0 85 -13q41 -14 69 -39q31 -28 46 -62q17 -39 17 -87q0 -41 -13 -76q-15 -39 -34 -68q-20 -31 -50 -63q-10 -10 -29.5 -30.5t-29.5 -30.5l-212 -215q26 6 39 8t41 2h240q1 4 1.5 11t0.5 11q2 16 2 17q0 2 0.5 5.5t0.5 4.5q1 43 38 43h23v-116v-43h-71h-415z" />
<glyph unicode="&#xb3;" horiz-adv-x="689" d="M89 1102l31 13q3 1 7 3q2 1 9 1q9 0 16 -4t10 -12l3 -8q1 -3 14 -33q8 -18 28 -40q15 -17 48 -33q28 -14 77 -14q41 0 74 14q30 13 52 35t32 48q11 28 11 52q0 33 -11 61q-10 25 -34 45q-24 19 -62 30q-36 10 -92 10v50q95 2 139 40q45 39 45 103q0 38 -11 61 q-12 26 -31 42q-21 18 -46 25q-27 8 -56 8q-64 0 -102 -33q-38 -34 -56 -93q-6 -21 -24 -21q-8 0 -23 3l-25 4q15 99 77 151t156 52q46 0 84 -13q39 -14 67 -37q29 -24 45 -58q16 -33 16 -78q0 -69 -37 -113q-37 -45 -98 -64q77 -18 114 -60q39 -43 39 -111q0 -52 -18 -88 q-20 -41 -52 -68t-77 -43q-46 -16 -93 -16q-58 0 -103 16q-40 14 -70 41q-28 25 -45 61q-16 33 -28 71z" />
<glyph unicode="&#xb4;" horiz-adv-x="550" d="M119 1189l161 244q12 18 23 25t37 7h96l-221 -259q-8 -11 -17 -14t-21 -3h-58z" />
<glyph unicode="&#xb5;" horiz-adv-x="1127" d="M169 -317v1336h98v-651q0 -144 66 -225q67 -82 199 -82q100 0 186 51q85 50 154 141v766h99v-1019h-55q-28 0 -29 27l-9 151q-73 -91 -159 -137q-88 -47 -192 -47q-101 0 -168 39t-105 113q6 -58 7 -89q1 -30 1 -82v-335h-49q-21 0 -32 11q-12 12 -12 32z" />
<glyph unicode="&#xb6;" horiz-adv-x="1340" d="M84 1089q0 83 31 148q33 68 90 114q59 47 142 72q86 26 190 26h741v-84h-230v-1560h-87v1560h-336v-1560h-88v911q-107 0 -190 28q-81 28 -142 79q-57 48 -90 119q-31 66 -31 147z" />
<glyph unicode="&#xb7;" horiz-adv-x="486" d="M141 606q0 18 9 41q6 17 22 34q12 14 32 22q22 9 39 9q18 0 41 -9q18 -7 33 -22q16 -16 23 -34q8 -21 8 -41q0 -18 -8 -39q-7 -19 -23 -33q-18 -16 -33 -22q-21 -8 -41 -8t-39 8q-17 7 -32 22t-22 33q-9 23 -9 39z" />
<glyph unicode="&#xb8;" horiz-adv-x="587" d="M123 -321l10 29q6 12 17 12q6 0 13 -5q8 -5 23 -12q21 -9 34 -13q18 -5 50 -5q54 0 82 22q29 23 29 62q0 26 -13 42q-12 15 -38 28q-23 12 -58 18q-41 7 -73 11l43 137h62l-31 -98q90 -16 139 -47q48 -30 48 -91q0 -31 -14 -56t-39 -41q-27 -17 -60 -26q-38 -10 -76 -10 q-41 0 -82 12q-39 12 -66 31z" />
<glyph unicode="&#xb9;" horiz-adv-x="596" d="M91 1468l216 189h60v-685h150v-50h-387v50h162v553l4 38l-148 -129q-9 -7 -16 -7q-10 0 -18 10z" />
<glyph unicode="&#xba;" horiz-adv-x="822" d="M116 1155q0 70 20 128q20 57 58 97q40 41 93 62q54 21 124 21q67 0 121 -21q56 -22 93 -62q38 -41 57 -97q20 -58 20 -128q0 -69 -20 -127t-57 -98t-93 -62q-54 -21 -121 -21q-70 0 -124 21q-53 21 -93 62q-38 39 -58 98q-20 58 -20 127zM194 1155q0 -118 53 -183 q54 -66 164 -66q106 0 160 66t54 183q0 116 -54 182q-55 67 -160 67q-109 0 -164 -67q-53 -65 -53 -182z" />
<glyph unicode="&#xbb;" horiz-adv-x="780" d="M123 179q0 12 7 23l187 301q6 12 12 18q2 2 6 5.5t5 4.5q-1 1 -5 5.5t-6 6.5q-6 6 -12 18l-187 300q-7 11 -7 24q0 17 17 25l31 16l247 -387v-14l-247 -388l-31 16q-17 9 -17 26zM384 179q0 12 7 23l188 301q7 14 11 18q2 2 6 5.5t5 4.5q-1 1 -5 5.5t-6 6.5q-4 4 -11 18 l-188 300q-7 11 -7 24q0 17 17 25l31 16l247 -387v-14l-247 -388l-31 16q-17 9 -17 26z" />
<glyph unicode="&#xbc;" horiz-adv-x="1404" d="M65 1265l216 188h59v-685h150v-50h-387v50h162v553l4 38l-147 -129q-8 -6 -17 -6q-11 0 -18 9zM248 0l819 1413q11 19 23 27q14 9 33 9h43l-821 -1417q-13 -20 -25 -25q-16 -7 -31 -7h-41zM796 249l360 483h69v-479h129v-37q0 -16 -18 -16h-111v-200h-65v200h-333 q-24 0 -25 16zM867 253h293v343q0 23 3 53z" />
<glyph unicode="&#xbd;" horiz-adv-x="1410" d="M65 1265l216 188h59v-685h150v-50h-387v50h162v553l4 38l-147 -129q-8 -6 -17 -6q-11 0 -18 9zM200 0l819 1413q11 19 23 27q14 9 33 9h43l-821 -1417q-13 -20 -25 -25q-16 -7 -31 -7h-41zM829 0v25q0 6 4 16q3 7 11 15l240 243q28 29 54 57q23 26 44 58q18 27 30 60 q11 31 11 64q0 35 -12 62q-11 25 -32 44q-18 17 -46 26q-27 9 -56 9q-63 0 -100 -36q-35 -34 -57 -93q-8 -20 -28 -20q-1 0 -3.5 0.5t-4.5 0.5q-8 0 -10 1l-30 6q15 98 78 151q62 52 158 52q46 0 85 -13q42 -14 69 -38q32 -28 47 -63q16 -36 16 -87q0 -44 -12 -76 q-13 -35 -35 -68q-18 -28 -50 -62q-10 -10 -29.5 -30.5t-29.5 -30.5l-212 -216q26 6 39 8q20 3 41 3h240q1 4 1.5 10.5t0.5 10.5q2 16 2 18t0.5 5t0.5 4q1 43 38 43h23v-116v-43h-71h-415z" />
<glyph unicode="&#xbe;" horiz-adv-x="1471" d="M79 898l31 13q3 1 7 3q2 1 9 1q8 0 15 -4q8 -5 11 -12l3 -8q8 -21 13 -33q6 -14 29 -39q17 -19 48 -34q28 -14 77 -14q40 0 73 14q32 13 53 35q22 22 32 48t10 53q0 34 -10 60t-35 46q-22 18 -61 29q-36 10 -92 10v50q93 2 139 41q45 39 45 103q0 37 -11 60 q-12 26 -31 42q-23 19 -46 26q-27 8 -56 8q-63 0 -102 -37q-38 -37 -56 -90q-7 -21 -24 -21h-4q-3 0 -6 1q-1 0 -2.5 0.5t-3 0.5t-4 0.5t-4.5 0.5l-10 1q-9 2 -15 3q15 98 78 151q62 52 156 52q46 0 84 -13q41 -14 67 -36t44 -59q17 -36 17 -78q0 -68 -37 -112 q-37 -45 -98 -64q76 -18 114 -61q39 -43 39 -110q0 -51 -19 -89q-20 -40 -51 -67q-34 -29 -77 -44q-44 -15 -93 -15q-61 0 -103 15q-40 14 -70 41q-28 25 -45 61q-16 33 -28 71zM323 0l819 1413q11 19 23 27q13 9 33 9h43l-821 -1417q-13 -20 -25 -25q-16 -7 -31 -7h-41z M862 249l361 483h68v-479h129v-37q0 -16 -17 -16h-112v-200h-64v200h-333q-25 0 -26 16zM934 253h293v343q0 23 3 53z" />
<glyph unicode="&#xbf;" horiz-adv-x="849" d="M91 -65q0 75 25 133q23 53 61 94q40 44 79 69q3 2 81 55q42 28 64 52q27 28 28 62l11 167h67l6 -174v-5q0 -43 -25 -74q-24 -30 -60 -57q-34 -25 -80 -54q-45 -28 -79 -62q-39 -39 -61 -83q-25 -50 -25 -115q0 -53 22 -99q22 -45 58 -74q37 -29 85 -46q47 -16 101 -16 q71 0 119 18q50 19 81 40q35 24 51 40q18 18 29 18q8 0 14 -4q5 -3 9 -9l25 -40q-31 -31 -62 -54q-34 -25 -77 -45q-46 -21 -90 -32q-49 -12 -107 -12q-69 0 -134 21q-62 20 -112 61q-47 38 -76 96q-28 56 -28 129zM381 940q0 20 7 37t20 30q14 13 30 21q15 7 37 7 q20 0 37 -7q15 -6 30 -21t21 -30q7 -17 7 -37q0 -22 -7 -37q-7 -17 -21 -30q-13 -13 -30 -20t-37 -7q-40 0 -67 27t-27 67z" />
<glyph unicode="&#xc0;" d="M77 0v47q0 37 39 41l66 7l555 1354h104l554 -1354l66 -7q40 -5 40 -41v-47h-67h-42h-39h-13h-193v47q0 39 47 42q1 0 5.5 0.5t7.5 0.5q1 0 29 2q22 2 52 3l-144 354l-10 26h-691l-10 -26l-143 -354q30 -1 52 -3q28 -2 29 -2q3 0 7 -0.5t5 -0.5q47 -3 47 -42v-47h-192h-14 h-39h-41h-67zM475 553h628l-285 706q-10 24 -15 39q-3 8 -7.5 24t-6.5 23q-2 -7 -6.5 -23t-7.5 -24q-8 -25 -15 -41zM487 1812h116q25 0 36 -4q10 -4 26 -18l233 -211h-72q-11 0 -21 2q-6 1 -18 10z" />
<glyph unicode="&#xc1;" d="M77 0v47q0 37 39 41l66 7l555 1354h104l554 -1354l66 -7q40 -5 40 -41v-47h-67h-42h-39h-13h-193v47q0 39 47 42q1 0 5.5 0.5t7.5 0.5q1 0 29 2q22 2 52 3l-144 354l-10 26h-691l-10 -26l-143 -354q30 -1 52 -3q28 -2 29 -2q3 0 7 -0.5t5 -0.5q47 -3 47 -42v-47h-192h-14 h-39h-41h-67zM475 553h628l-285 706q-10 24 -15 39q-3 8 -7.5 24t-6.5 23q-2 -7 -6.5 -23t-7.5 -24q-8 -25 -15 -41zM673 1579l233 211q16 14 26 18q11 4 37 4h115l-299 -221q-7 -5 -19 -9q-9 -3 -21 -3h-72z" />
<glyph unicode="&#xc2;" d="M77 0v47q0 37 39 41l66 7l555 1354h104l554 -1354l66 -7q40 -5 40 -41v-47h-67h-42h-39h-13h-193v47q0 39 47 42q1 0 5.5 0.5t7.5 0.5q1 0 29 2q22 2 52 3l-144 354l-10 26h-691l-10 -26l-143 -354q30 -1 52 -3q28 -2 29 -2q3 0 7 -0.5t5 -0.5q47 -3 47 -42v-47h-192h-14 h-39h-41h-67zM475 553h628l-285 706q-10 24 -15 39q-3 8 -7.5 24t-6.5 23q-2 -7 -6.5 -23t-7.5 -24q-8 -25 -15 -41zM501 1579l241 204h92l241 -204h-75q-9 0 -18 3q-12 4 -17 7l-160 126q-10 8 -11 9l-5 6l-6 -6q-1 -1 -5.5 -4t-6.5 -5l-160 -126q-5 -3 -17 -7 q-9 -3 -17 -3h-76z" />
<glyph unicode="&#xc3;" d="M77 0v47q0 37 39 41l66 7l555 1354h104l554 -1354l66 -7q40 -5 40 -41v-47h-67h-42h-39h-13h-193v47q0 39 47 42q1 0 5.5 0.5t7.5 0.5q1 0 29 2q22 2 52 3l-144 354l-10 26h-691l-10 -26l-143 -354q30 -1 52 -3q28 -2 29 -2q3 0 7 -0.5t5 -0.5q47 -3 47 -42v-47h-192h-14 h-39h-41h-67zM475 553h628l-285 706q-10 24 -15 39q-3 8 -7.5 24t-6.5 23q-2 -7 -6.5 -23t-7.5 -24q-8 -25 -15 -41zM532 1590q0 33 10 66q9 30 28 54q17 21 45 35q26 13 61 13q37 0 66 -16q33 -18 59 -36q19 -13 55 -35q26 -16 55 -16q43 0 65 28q22 29 24 72h55 q0 -36 -9 -66q-9 -31 -27 -53q-19 -23 -44 -36q-26 -13 -62 -13q-34 0 -65 17q-40 22 -59 35q-11 7 -56 35q-28 17 -55 17q-42 0 -65 -29q-23 -28 -24 -72h-57z" />
<glyph unicode="&#xc4;" d="M77 0v47q0 37 39 41l66 7l555 1354h104l554 -1354l66 -7q40 -5 40 -41v-47h-67h-42h-39h-13h-193v47q0 39 47 42q1 0 5.5 0.5t7.5 0.5q1 0 29 2q22 2 52 3l-144 354l-10 26h-691l-10 -26l-143 -354q30 -1 52 -3q28 -2 29 -2q3 0 7 -0.5t5 -0.5q47 -3 47 -42v-47h-192h-14 h-39h-41h-67zM475 553h628l-285 706q-10 24 -15 39q-3 8 -7.5 24t-6.5 23q-2 -7 -6.5 -23t-7.5 -24q-8 -25 -15 -41zM492 1705q0 15 7 32t17 27q12 12 27 18q18 7 31 7q14 0 32 -7q13 -5 26 -18q11 -11 19 -27q7 -14 7 -32q0 -17 -7 -31q-8 -17 -19 -26q-14 -12 -26 -17 q-17 -7 -32 -7q-14 0 -31 7q-14 6 -27 17q-10 9 -17 26t-7 31zM918 1705q0 33 24 59q24 25 59 25q13 0 31 -7q15 -6 27 -18t18 -27q7 -17 7 -32q0 -13 -7 -31q-6 -16 -18 -26q-13 -11 -27 -17q-18 -7 -31 -7q-15 0 -32 7q-14 6 -27 17q-10 9 -17 26t-7 31z" />
<glyph unicode="&#xc5;" d="M77 0v47q0 37 39 41l66 7l555 1354h104l554 -1354l66 -7q40 -5 40 -41v-47h-67h-42h-39h-13h-193v47q0 39 47 42q1 0 5.5 0.5t7.5 0.5q1 0 29 2q22 2 52 3l-144 354l-10 26h-691l-10 -26l-143 -354q30 -1 52 -3q28 -2 29 -2q3 0 7 -0.5t5 -0.5q47 -3 47 -42v-47h-192h-14 h-39h-41h-67zM475 553h628l-285 706q-10 24 -15 39q-3 8 -7.5 24t-6.5 23q-2 -7 -6.5 -23t-7.5 -24q-8 -25 -15 -41zM617 1669q0 34 14 65q14 30 37 52q24 23 54 34q32 12 66 12t66 -12q31 -12 55 -34q23 -22 37 -52q14 -31 14 -65t-14 -65q-14 -30 -37 -52q-22 -20 -55 -33 q-32 -12 -66 -12t-66 12t-54 33q-23 22 -37 52q-14 31 -14 65zM671 1669q0 -51 33 -84t85 -33q51 0 84 33t33 84t-33 84t-84 33q-52 0 -85 -33t-33 -84z" />
<glyph unicode="&#xc6;" horiz-adv-x="2043" d="M78 0v47q0 37 39 41l65 7l704 1274q-28 2 -40 2q-7 0 -16.5 0.5t-12.5 0.5h-14q-41 2 -41 36v41h168h5h978v-87v-213h-49q-42 0 -45 50q-5 92 -8 163h-732l73 -586h575v-85h-563l77 -604h570q0 5 1 18.5l2 27t1 26.5q1 17 2 38.5t1 26.5q1 14 1 26q3 50 45 50h49v-213 v-87h-738h-21h-151v41q0 35 40 36h16q3 0 15 1t20 1q31 0 49 1l-47 369h-610l-195 -354q34 -2 52 -3q26 -2 29 -2t7 -0.5t5 -0.5q47 -3 47 -42v-47h-192h-29h-24h-56h-52zM529 526h557l-108 843q-7 -24 -18 -50q-10 -24 -22 -47z" />
<glyph unicode="&#xc7;" horiz-adv-x="1317" d="M75 725q0 165 51 301q50 133 146 234q93 98 224 152q128 53 288 53q202 0 463 -104v-326h-50q-41 0 -44 49q0 6 -1.5 33t-4 79.5t-5.5 109.5q-161 69 -358 69q-131 0 -242 -45q-110 -45 -191 -130q-78 -82 -124 -205q-45 -120 -45 -270q0 -151 44 -274q43 -120 122 -205 q77 -83 184 -128q104 -44 230 -44q80 0 139 10q63 11 112 31q56 23 95 50q50 34 87 69q1 1 10 7q5 3 10 3q11 0 18 -7l41 -44q-47 -50 -98 -87q-50 -37 -117 -66q-63 -27 -138 -42q-63 -12 -154 -14l-2 -8l-22 -69q90 -16 139 -47q48 -31 48 -91q0 -31 -14 -56t-39 -41 q-27 -17 -60 -26q-38 -10 -76 -10q-41 0 -82 12q-37 11 -66 32l10 28q6 12 17 12q6 0 13 -5q3 -2 11 -6l12 -6q21 -9 34 -13q18 -5 50 -5q54 0 82 22q29 23 29 62q0 26 -13 42q-12 15 -38 28q-23 12 -58 18q-39 7 -73 11l36 117q-121 7 -225 51q-124 52 -215 150t-140 234 q-50 138 -50 305z" />
<glyph unicode="&#xc8;" horiz-adv-x="1273" d="M102 0v41q0 34 41 36q1 0 7 0.5t12 0.5q26 0 46 1q10 1 33 1.5t34 0.5v1287q-11 0 -34 0.5t-33 1.5q-20 1 -46 1q-6 0 -12 0.5t-7 0.5q-41 2 -41 36v41h173h868v-87v-213h-50q-41 0 -44 50q-5 92 -8 163h-661v-586h577v-85h-577v-604h661q0 6 1 18.5t2 26t1 26.5 q1 45 3 66q1 14 1 26q3 50 44 50h50v-213v-87h-868h-173zM417 1812h116q25 0 36 -4q10 -4 26 -18l234 -211h-73q-10 0 -20 2q-7 1 -19 10z" />
<glyph unicode="&#xc9;" horiz-adv-x="1273" d="M102 0v41q0 34 41 36q1 0 7 0.5t12 0.5q26 0 46 1q10 1 33 1.5t34 0.5v1287q-11 0 -34 0.5t-33 1.5q-20 1 -46 1q-6 0 -12 0.5t-7 0.5q-41 2 -41 36v41h173h868v-87v-213h-50q-41 0 -44 50q-5 92 -8 163h-661v-586h577v-85h-577v-604h661q0 6 1 18.5t2 26t1 26.5 q1 45 3 66q1 14 1 26q3 50 44 50h50v-213v-87h-868h-173zM604 1579l232 211q15 14 27 18q11 4 37 4h114l-299 -221q-7 -5 -19 -9q-9 -3 -21 -3h-71z" />
<glyph unicode="&#xca;" horiz-adv-x="1273" d="M102 0v41q0 34 41 36q1 0 7 0.5t12 0.5q26 0 46 1q10 1 33 1.5t34 0.5v1287q-11 0 -34 0.5t-33 1.5q-20 1 -46 1q-6 0 -12 0.5t-7 0.5q-41 2 -41 36v41h173h868v-87v-213h-50q-41 0 -44 50q-5 92 -8 163h-661v-586h577v-85h-577v-604h661q0 6 1 18.5t2 26t1 26.5 q1 45 3 66q1 14 1 26q3 50 44 50h50v-213v-87h-868h-173zM432 1579l240 204h92l241 -204h-75q-9 0 -18 3q-12 4 -17 7l-159 126q-2 2 -6.5 5t-5.5 4l-5 6l-2 -2q-2 -3 -3 -4t-5.5 -4t-6.5 -5l-161 -126q-6 -4 -16 -7q-9 -3 -18 -3h-75z" />
<glyph unicode="&#xcb;" horiz-adv-x="1273" d="M102 0v41q0 34 41 36q1 0 7 0.5t12 0.5q26 0 46 1q10 1 33 1.5t34 0.5v1287q-11 0 -34 0.5t-33 1.5q-20 1 -46 1q-6 0 -12 0.5t-7 0.5q-41 2 -41 36v41h173h868v-87v-213h-50q-41 0 -44 50q-5 92 -8 163h-661v-586h577v-85h-577v-604h661q0 6 1 18.5t2 26t1 26.5 q1 45 3 66q1 14 1 26q3 50 44 50h50v-213v-87h-868h-173zM422 1705q0 15 7 32q6 15 18 27q13 13 26 18q18 7 31 7q14 0 32 -7q15 -6 27 -18q9 -9 18 -27q7 -14 7 -32q0 -17 -7 -31q-9 -18 -18 -26q-13 -11 -27 -17q-17 -7 -32 -7q-14 0 -31 7q-12 5 -26 17q-12 10 -18 26 q-7 17 -7 31zM848 1705q0 32 25 59q24 25 58 25q15 0 32 -7q13 -5 26 -18q14 -14 19 -27q6 -15 6 -32q0 -16 -6 -31q-6 -14 -19 -26q-14 -12 -26 -17q-17 -7 -32 -7t-32 7q-12 5 -26 17q-12 10 -18 26q-7 17 -7 31z" />
<glyph unicode="&#xcc;" horiz-adv-x="627" d="M10 1812h116q25 0 36 -4q10 -4 26 -18l234 -211h-73q-10 0 -20 2q-7 1 -19 10zM83 0v41q0 34 41 36q1 0 7.5 0.5t12.5 0.5q25 0 45 1q10 1 33 1.5t34 0.5v1287q-11 0 -34 0.5t-33 1.5q-20 1 -45 1q-6 0 -12.5 0.5t-7.5 0.5q-41 2 -41 36v41h173h105h173v-41 q0 -34 -41 -36q-1 0 -7 -0.5t-12 -0.5q-26 0 -46 -1q-10 -1 -33 -1.5t-34 -0.5v-1287q11 0 34 -0.5t33 -1.5q20 -1 46 -1q6 0 12 -0.5t7 -0.5q41 -2 41 -36v-41h-173h-105h-173z" />
<glyph unicode="&#xcd;" horiz-adv-x="635" d="M102 0v41q0 34 41 36q1 0 7 0.5t12 0.5q26 0 46 1q10 1 33 1.5t34 0.5v1287q-11 0 -34 0.5t-33 1.5q-20 1 -46 1q-6 0 -12 0.5t-7 0.5q-41 2 -41 36v41h173h105h173v-41q0 -34 -41 -36q-1 0 -7 -0.5t-12 -0.5q-26 0 -46 -1q-10 -1 -33 -1.5t-34 -0.5v-1287q11 0 34 -0.5 t33 -1.5q20 -1 46 -1q6 0 12 -0.5t7 -0.5q41 -2 41 -36v-41h-173h-105h-173zM216 1579l232 211q15 14 27 18q11 4 36 4h115l-299 -221q-7 -5 -19 -9q-9 -3 -21 -3h-71z" />
<glyph unicode="&#xce;" horiz-adv-x="609" d="M20 1579l241 204h92l241 -204h-75q-9 0 -18 3q-12 4 -17 7l-159 126q-2 2 -6.5 5t-5.5 4l-5 6l-2 -2q-2 -3 -3 -4t-5.5 -4t-6.5 -5l-161 -126q-6 -4 -16 -7q-9 -3 -18 -3h-76zM79 0v41q0 34 41 36q1 0 7 0.5t12 0.5q26 0 46 1q10 1 33 1.5t34 0.5v1287q-11 0 -34 0.5 t-33 1.5q-20 1 -46 1q-6 0 -12 0.5t-7 0.5q-41 2 -41 36v41h173h105h173v-41q0 -34 -41 -36q-1 0 -7 -0.5t-12 -0.5q-26 0 -46 -1q-10 -1 -33 -1.5t-34 -0.5v-1287q11 0 34 -0.5t33 -1.5q20 -1 46 -1q6 0 12 -0.5t7 -0.5q41 -2 41 -36v-41h-173h-105h-173z" />
<glyph unicode="&#xcf;" horiz-adv-x="616" d="M13 1705q0 15 7 32q6 15 18 27q13 13 26 18q17 7 31 7q15 0 32 -7q15 -6 27 -18q9 -9 18 -27q7 -14 7 -32q0 -17 -7 -31q-9 -18 -18 -26q-13 -11 -27 -17q-18 -7 -32 -7q-13 0 -31 7q-12 5 -26 17q-12 10 -18 26q-7 18 -7 31zM81 0v41q0 34 41 36q1 0 7 0.5t12 0.5 q26 0 46 1q10 1 33 1.5t34 0.5v1287q-11 0 -34 0.5t-33 1.5q-20 1 -46 1q-6 0 -12 0.5t-7 0.5q-41 2 -41 36v41h173h105h173v-41q0 -34 -41 -36q-1 0 -7 -0.5t-12 -0.5q-26 0 -46 -1q-10 -1 -33 -1.5t-34 -0.5v-1287q11 0 34 -0.5t33 -1.5q20 -1 46 -1q6 0 12 -0.5t7 -0.5 q41 -2 41 -36v-41h-173h-105h-173zM439 1705q0 32 25 59q24 25 58 25q14 0 31 -7q15 -6 27 -18q14 -14 19 -27q6 -15 6 -32q0 -16 -6 -31q-6 -14 -19 -26q-13 -11 -27 -17q-17 -7 -31 -7t-32 7q-12 5 -26 17q-12 10 -18 26q-7 17 -7 31z" />
<glyph unicode="&#xd0;" horiz-adv-x="1556" d="M55 701v66h221v601q-35 1 -66.5 2t-46 1.5t-19.5 0.5q-41 2 -41 36v41h173h503q152 0 281 -50q126 -49 219 -145q91 -94 141 -228q50 -135 50 -301q0 -167 -50 -302q-50 -133 -141 -228q-93 -96 -219 -145q-129 -50 -281 -50h-503h-173v41q0 34 41 36q5 0 19.5 0.5 t46 1.5t66.5 2v620h-221zM381 85h398q131 0 238 43q109 44 184 125q77 83 119 201t42 271q0 151 -42 270q-42 118 -119 201q-75 81 -184 125q-107 43 -238 43h-398v-597h414v-66h-414v-616z" />
<glyph unicode="&#xd1;" horiz-adv-x="1614" d="M102 0v41q0 34 41 36q1 0 7 0.5t12 0.5q26 0 46 1q10 1 33 1.5t34 0.5v1287q-11 0 -34 0.5t-33 1.5q-20 1 -46 1q-6 0 -12 0.5t-7 0.5q-41 2 -41 36v41h173h51q13 0 23 -4q7 -3 17 -16l938 -1255q-3 30 -3 59v1135q-12 0 -34.5 0.5t-33.5 1.5q-21 1 -48 1q-7 0 -13 0.5 t-7 0.5q-41 2 -41 36v41h177h92h173v-41q0 -34 -41 -36q-1 0 -7.5 -0.5t-12.5 -0.5q-25 0 -45 -1q-10 -1 -33 -1.5t-34 -0.5v-1368h-50q-23 0 -38 21l-942 1257q3 -30 3 -58v-1139q12 0 34.5 -0.5t33.5 -1.5q21 -1 48 -1h13l7 -1q41 -2 41 -36v-41h-177h-91h-173zM615 1590 q0 33 10 66q9 30 28 54q17 21 45 35q26 13 61 13q37 0 66 -16q33 -18 59 -36q19 -13 55 -35q26 -16 55 -16q43 0 65 28q23 29 24 72h55q0 -36 -9 -66q-9 -31 -27 -53q-19 -23 -44 -36q-26 -13 -62 -13q-34 0 -65 17q-40 22 -59 35q-11 7 -56 35q-28 17 -55 17q-42 0 -65 -29 q-22 -28 -24 -72h-57z" />
<glyph unicode="&#xd2;" horiz-adv-x="1542" d="M75 725q0 170 50 304q51 136 142 233q92 98 218 150q129 53 280 53q156 0 282 -52t218 -150q91 -97 141 -234q50 -138 50 -304q0 -167 -50 -305q-49 -135 -141 -233t-218 -150t-282 -52q-154 0 -280 52t-218 150q-91 97 -142 233q-50 134 -50 305zM182 725 q0 -150 43 -273q42 -120 120 -204q79 -85 184 -128q108 -44 236 -44q130 0 239 44q105 42 183 128q77 85 119 204q42 120 42 273q0 151 -42 272q-41 120 -119 205q-77 85 -183 129t-239 44q-132 0 -236 -44q-106 -45 -184 -129t-120 -205q-43 -124 -43 -272zM466 1812h116 q25 0 36 -4q10 -4 26 -18l234 -211h-73q-11 0 -21 2q-6 1 -18 10z" />
<glyph unicode="&#xd3;" horiz-adv-x="1542" d="M75 725q0 170 50 304q51 136 142 233q92 98 218 150q129 53 280 53q156 0 282 -52t218 -150q91 -97 141 -234q50 -138 50 -304q0 -167 -50 -305q-49 -135 -141 -233t-218 -150t-282 -52q-154 0 -280 52t-218 150q-91 97 -142 233q-50 134 -50 305zM182 725 q0 -150 43 -273q42 -120 120 -204q79 -85 184 -128q108 -44 236 -44q130 0 239 44q105 42 183 128q77 85 119 204q42 120 42 273q0 151 -42 272q-41 120 -119 205q-77 85 -183 129t-239 44q-132 0 -236 -44q-106 -45 -184 -129t-120 -205q-43 -124 -43 -272zM652 1579 l233 211q16 14 26 18q11 4 37 4h115l-299 -221q-7 -5 -19 -9q-9 -3 -21 -3h-72z" />
<glyph unicode="&#xd4;" horiz-adv-x="1542" d="M75 725q0 170 50 304q51 136 142 233q92 98 218 150q129 53 280 53q156 0 282 -52t218 -150q91 -97 141 -234q50 -138 50 -304q0 -167 -50 -305q-49 -135 -141 -233t-218 -150t-282 -52q-154 0 -280 52t-218 150q-91 97 -142 233q-50 134 -50 305zM182 725 q0 -150 43 -273q42 -120 120 -204q79 -85 184 -128q108 -44 236 -44q130 0 239 44q105 42 183 128q77 85 119 204q42 120 42 273q0 151 -42 272q-41 120 -119 205q-77 85 -183 129t-239 44q-132 0 -236 -44q-106 -45 -184 -129t-120 -205q-43 -124 -43 -272zM480 1579 l241 204h92l241 -204h-75q-9 0 -18 3q-12 4 -17 7l-160 126q-10 8 -11 9l-5 6l-6 -6q-1 -1 -11 -9l-161 -126q-5 -3 -17 -7q-9 -3 -17 -3h-76z" />
<glyph unicode="&#xd5;" horiz-adv-x="1542" d="M75 725q0 170 50 304q51 136 142 233q92 98 218 150q129 53 280 53q156 0 282 -52t218 -150q91 -97 141 -234q50 -138 50 -304q0 -167 -50 -305q-49 -135 -141 -233t-218 -150t-282 -52q-154 0 -280 52t-218 150q-91 97 -142 233q-50 134 -50 305zM182 725 q0 -150 43 -273q42 -120 120 -204q79 -85 184 -128q108 -44 236 -44q130 0 239 44q105 42 183 128q77 85 119 204q42 120 42 273q0 151 -42 272q-41 120 -119 205q-77 85 -183 129t-239 44q-132 0 -236 -44q-106 -45 -184 -129t-120 -205q-43 -124 -43 -272zM511 1590 q0 33 10 66q9 30 28 54q17 21 45 35q26 13 61 13q37 0 66 -16q33 -18 59 -36q11 -7 56 -35q26 -16 54 -16q43 0 65 28q23 29 24 72h55q0 -36 -9 -66q-9 -31 -27 -53q-19 -23 -44 -36q-26 -13 -62 -13q-34 0 -65 17q-40 22 -59 35q-11 7 -56 35q-28 17 -55 17q-42 0 -65 -29 q-22 -28 -24 -72h-57z" />
<glyph unicode="&#xd6;" horiz-adv-x="1542" d="M75 725q0 170 50 304q51 136 142 233q92 98 218 150q129 53 280 53q156 0 282 -52t218 -150q91 -97 141 -234q50 -138 50 -304q0 -167 -50 -305q-49 -135 -141 -233t-218 -150t-282 -52q-154 0 -280 52t-218 150q-91 97 -142 233q-50 134 -50 305zM182 725 q0 -150 43 -273q42 -120 120 -204q79 -85 184 -128q108 -44 236 -44q130 0 239 44q105 42 183 128q77 85 119 204q42 120 42 273q0 151 -42 272q-41 120 -119 205q-77 85 -183 129t-239 44q-132 0 -236 -44q-106 -45 -184 -129t-120 -205q-43 -124 -43 -272zM471 1705 q0 15 7 32q6 15 18 27q13 13 26 18q17 7 31 7q15 0 32 -7q13 -5 26 -18q11 -11 19 -27q7 -14 7 -32q0 -17 -7 -31q-8 -17 -19 -26q-14 -12 -26 -17q-17 -7 -32 -7q-13 0 -31 7q-12 5 -26 17q-12 10 -18 26q-7 17 -7 31zM897 1705q0 32 25 59q24 25 58 25q14 0 31 -7 q15 -6 27 -18t18 -27q7 -17 7 -32q0 -13 -7 -31q-6 -16 -18 -26q-13 -11 -27 -17q-17 -7 -31 -7t-32 7q-12 5 -26 17q-12 10 -18 26q-7 17 -7 31z" />
<glyph unicode="&#xd7;" horiz-adv-x="980" d="M51 303l382 383l-377 377l55 55l376 -378l375 376l54 -55l-375 -375l381 -381l-53 -53l-382 381l-383 -383z" />
<glyph unicode="&#xd8;" horiz-adv-x="1547" d="M77 725q0 170 50 304q51 136 142 233q92 98 218 150q129 53 280 53q125 0 230 -34q107 -35 192 -99l114 153q10 14 21 23q10 8 30 8h56l-169 -228q104 -99 160 -240q57 -142 57 -323q0 -167 -50 -305q-49 -135 -141 -233t-218 -150t-282 -52q-120 0 -220 31 q-105 33 -185 89l-134 -180q-13 -18 -29 -25q-18 -8 -34 -8h-45l189 255q-108 97 -171 245q-61 144 -61 333zM184 725q0 -163 48 -289q47 -124 136 -210l764 1029q-74 60 -165 90q-92 30 -200 30q-132 0 -236 -44q-106 -45 -184 -129t-120 -205q-43 -124 -43 -272zM419 182 q69 -51 158 -79q87 -27 190 -27q130 0 239 44q105 42 183 128q77 85 119 204q42 120 42 273q0 154 -44 277q-43 121 -124 206z" />
<glyph unicode="&#xd9;" horiz-adv-x="1538" d="M48 1408v41h173h105h198v-41q0 -35 -40 -36h-9q-9 -1 -17 -1q-34 0 -58 -1q-12 -1 -37 -1.5t-37 -0.5v-814q0 -102 30 -189q30 -88 87 -152q55 -62 140 -101q81 -37 187 -37q104 0 186 36q83 36 140 101q58 66 88 152q30 87 30 189v815q-12 0 -36.5 1t-36.5 1 q-24 1 -59 1q-8 0 -17 1h-9q-40 1 -40 36v41h198h104h173v-41q0 -34 -41 -36q-1 0 -7 -0.5t-12 -0.5q-26 0 -46 -1q-10 -1 -33 -1.5t-34 -0.5v-815q0 -119 -38 -224q-37 -101 -109 -181q-69 -77 -173 -121q-103 -44 -228 -44q-126 0 -229 44q-104 44 -173 121 q-72 80 -109 181q-38 105 -38 224v815q-11 0 -34 0.5t-33 1.5q-20 1 -46 1q-6 0 -12 0.5t-7 0.5q-41 2 -41 36zM468 1812h116q26 0 37 -4q10 -4 26 -18l233 -211h-73q-10 0 -20 2q-7 1 -19 10z" />
<glyph unicode="&#xda;" horiz-adv-x="1538" d="M48 1408v41h173h105h198v-41q0 -35 -40 -36h-9q-9 -1 -17 -1q-34 0 -58 -1q-12 -1 -37 -1.5t-37 -0.5v-814q0 -102 30 -189q30 -88 87 -152q55 -62 140 -101q81 -37 187 -37q104 0 186 36q83 36 140 101q58 66 88 152q30 87 30 189v815q-12 0 -36.5 1t-36.5 1 q-24 1 -59 1q-8 0 -17 1h-9q-40 1 -40 36v41h198h104h173v-41q0 -34 -41 -36q-1 0 -7 -0.5t-12 -0.5q-26 0 -46 -1q-10 -1 -33 -1.5t-34 -0.5v-815q0 -119 -38 -224q-37 -101 -109 -181q-69 -77 -173 -121q-103 -44 -228 -44q-126 0 -229 44q-104 44 -173 121 q-72 80 -109 181q-38 105 -38 224v815q-11 0 -34 0.5t-33 1.5q-20 1 -46 1q-6 0 -12 0.5t-7 0.5q-41 2 -41 36zM655 1579l232 211q15 14 27 18q11 4 37 4h114l-299 -221q-7 -5 -19 -9q-9 -3 -21 -3h-71z" />
<glyph unicode="&#xdb;" horiz-adv-x="1538" d="M48 1408v41h173h105h198v-41q0 -35 -40 -36h-9q-9 -1 -17 -1q-34 0 -58 -1q-12 -1 -37 -1.5t-37 -0.5v-814q0 -102 30 -189q30 -88 87 -152q55 -62 140 -101q81 -37 187 -37q104 0 186 36q83 36 140 101q58 66 88 152q30 87 30 189v815q-12 0 -36.5 1t-36.5 1 q-24 1 -59 1q-8 0 -17 1h-9q-40 1 -40 36v41h198h104h173v-41q0 -34 -41 -36q-1 0 -7 -0.5t-12 -0.5q-26 0 -46 -1q-10 -1 -33 -1.5t-34 -0.5v-815q0 -119 -38 -224q-37 -101 -109 -181q-69 -77 -173 -121q-103 -44 -228 -44q-126 0 -229 44q-104 44 -173 121 q-72 80 -109 181q-38 105 -38 224v815q-11 0 -34 0.5t-33 1.5q-20 1 -46 1q-6 0 -12 0.5t-7 0.5q-41 2 -41 36zM483 1579l240 204h93l240 -204h-75q-8 0 -17 3q-12 4 -17 7l-160 126q-10 8 -11 9l-5 6l-6 -6q-1 -1 -5.5 -4t-6.5 -5l-161 -126q-6 -4 -16 -7q-9 -3 -17 -3h-76 z" />
<glyph unicode="&#xdc;" horiz-adv-x="1538" d="M48 1408v41h173h105h198v-41q0 -35 -40 -36h-9q-9 -1 -17 -1q-34 0 -58 -1q-12 -1 -37 -1.5t-37 -0.5v-814q0 -102 30 -189q30 -88 87 -152q55 -62 140 -101q81 -37 187 -37q104 0 186 36q83 36 140 101q58 66 88 152q30 87 30 189v815q-12 0 -36.5 1t-36.5 1 q-24 1 -59 1q-8 0 -17 1h-9q-40 1 -40 36v41h198h104h173v-41q0 -34 -41 -36q-1 0 -7 -0.5t-12 -0.5q-26 0 -46 -1q-10 -1 -33 -1.5t-34 -0.5v-815q0 -119 -38 -224q-37 -101 -109 -181q-69 -77 -173 -121q-103 -44 -228 -44q-126 0 -229 44q-104 44 -173 121 q-72 80 -109 181q-38 105 -38 224v815q-11 0 -34 0.5t-33 1.5q-20 1 -46 1q-6 0 -12 0.5t-7 0.5q-41 2 -41 36zM474 1705q0 17 6 32t18 27q13 13 26 18q17 7 31 7q15 0 32 -7q15 -6 27 -18q9 -9 18 -27q7 -14 7 -32q0 -17 -7 -31q-9 -18 -18 -26q-13 -11 -27 -17 q-18 -7 -32 -7q-13 0 -31 7q-12 5 -26 17q-12 10 -18 26q-6 15 -6 31zM900 1705q0 33 24 59q24 25 58 25q14 0 32 -7q13 -5 26 -18q14 -14 19 -27q6 -15 6 -32q0 -16 -6 -31q-6 -14 -19 -26q-14 -12 -26 -17q-18 -7 -32 -7t-32 7q-12 5 -26 17q-12 10 -18 26q-6 15 -6 31z " />
<glyph unicode="&#xdd;" horiz-adv-x="1408" d="M50 1408v41h65h11h80h17h205v-41q0 -35 -40 -36q-1 0 -6.5 -0.5t-9.5 -0.5q-19 0 -36 -1q-9 -1 -27 -1.5t-28 -0.5l380 -610q14 -22 25 -46q12 -25 18 -44q4 12 19 44q14 30 24 46l380 610q-10 0 -28.5 0.5t-27.5 1.5q-17 1 -36 1q-4 0 -9 0.5t-6 0.5q-41 2 -41 36v41 h206h15h81h11h65v-41q0 -34 -41 -36q-18 -1 -43 -2.5t-32 -1.5l-485 -770v-517q11 0 34 -0.5t33 -1.5q20 -1 46 -1q6 0 12 -0.5t7 -0.5q41 -2 41 -36v-41h-173h-105h-172v41q0 35 40 36q1 0 7.5 0.5t12.5 0.5q25 0 45 1q10 1 33 1.5t34 0.5v517l-485 770q-8 0 -32.5 1.5 t-42.5 2.5q-41 2 -41 36zM589 1579l233 211q15 14 27 18q11 4 36 4h115l-299 -221q-7 -5 -19 -9q-9 -3 -21 -3h-72z" />
<glyph unicode="&#xde;" horiz-adv-x="1133" d="M171 0v1449h104v-291h270q255 0 384 -111q130 -112 130 -319q0 -96 -36 -175q-37 -81 -101 -138q-62 -55 -162 -90q-92 -32 -215 -32h-270v-293h-104zM275 377h270q98 0 172 26t128 74q53 47 81 111q28 63 28 140q0 167 -103 257q-102 89 -306 89h-270v-697z" />
<glyph unicode="&#xdf;" horiz-adv-x="1101" d="M154 0v1025q0 107 33 186q34 82 94 139q61 58 143 87q84 30 182 30q86 0 155 -26q68 -26 114 -67q44 -40 69 -93q24 -51 24 -102q0 -65 -24 -111q-23 -45 -61 -83t-78 -65q-42 -28 -78 -57q-40 -32 -61 -58q-24 -30 -24 -68q0 -36 17 -62q16 -25 45 -43q36 -23 63 -34 q5 -2 73 -32q32 -14 73 -38q31 -18 63 -52q28 -29 45 -73q17 -43 17 -103q0 -71 -25 -128q-25 -58 -72 -100q-47 -43 -111 -65q-66 -23 -143 -23q-106 0 -178 34q-73 34 -135 90l22 34q4 7 12 13q5 4 18 4q12 0 32 -17q13 -11 50 -35q25 -16 76 -35q46 -17 110 -17 q62 0 108 18q47 18 79 49q32 30 49 74q17 43 17 90q0 68 -30 110q-29 40 -75 68q-42 25 -98 46t-97 44q-46 26 -75 64q-30 39 -30 103q0 49 24 87q23 37 62 69q34 29 81 61q42 29 80 64q37 34 62 78t25 100q0 32 -15 69q-15 38 -46 69q-33 33 -85 54q-55 22 -127 22 q-74 0 -137 -22q-65 -23 -112 -67q-48 -45 -75 -116q-28 -73 -28 -166v-1023h-97z" />
<glyph unicode="&#xe0;" horiz-adv-x="1039" d="M76 247q0 65 37 120q38 56 115 96q79 41 202 65q126 25 296 29v107q0 141 -61 217t-181 76q-76 0 -125 -20q-51 -21 -88 -45q-34 -23 -58 -45q-23 -21 -38 -21q-20 0 -31 19l-17 29q81 81 168 121q90 41 200 41q80 0 143 -26q60 -25 102 -75q40 -47 61 -117 q20 -66 20 -154v-584q32 -2 47 -2q8 0 19 -0.5t14 -0.5h15q40 -1 40 -36v-41h-135h-37h-2q-30 0 -38 29l-14 130q-49 -47 -83 -74q-40 -32 -87 -55q-47 -24 -97 -35q-48 -11 -115 -11q-52 0 -101 15t-87 47t-61 82q-23 51 -23 119zM170 251q0 -50 17 -89q16 -36 44 -61 t65 -35q38 -12 77 -12q61 0 109 13q51 14 92 36q37 20 79 55q40 33 73 68v266q-148 -5 -250 -22q-102 -18 -173 -49q-67 -30 -101 -73q-32 -41 -32 -97zM273 1465h95q25 0 36 -7q13 -8 24 -25l161 -244h-56q-11 0 -20 3t-17 14z" />
<glyph unicode="&#xe1;" horiz-adv-x="1039" d="M77 247q0 65 37 120q38 56 115 96q79 41 202 65q126 25 296 29v107q0 141 -61 217t-181 76q-76 0 -125 -20q-51 -21 -88 -45q-34 -23 -58 -45q-22 -21 -38 -21q-20 0 -31 19l-17 29q81 81 168 121q90 41 200 41q80 0 143 -26q60 -25 102 -75q40 -47 61 -117 q20 -66 20 -154v-584q32 -2 47 -2q9 0 20 -0.5t13 -0.5h15q40 -1 40 -36v-41h-135h-37h-2q-30 0 -38 29l-14 130q-49 -47 -83 -74q-40 -32 -87 -55q-47 -24 -97 -35q-48 -11 -115 -11q-51 0 -101 15q-49 15 -87 47t-61 82q-23 51 -23 119zM171 251q0 -50 17 -89 q16 -36 44 -61t65 -35q38 -12 77 -12q61 0 109 13q51 14 92 36q37 20 79 55q40 33 73 68v266q-148 -5 -250 -22q-102 -18 -173 -49q-67 -30 -101 -73q-32 -41 -32 -97zM398 1189l161 244q11 17 24 25q11 7 37 7h96l-221 -259q-8 -11 -17 -14t-21 -3h-59z" />
<glyph unicode="&#xe2;" horiz-adv-x="1038" d="M76 247q0 65 37 120q38 56 115 96q79 41 202 65q126 25 296 29v107q0 141 -61 217t-181 76q-76 0 -125 -20q-51 -21 -88 -45q-34 -23 -58 -45q-23 -21 -38 -21q-20 0 -31 19l-17 29q81 81 168 121q90 41 200 41q80 0 143 -26q60 -25 102 -75q40 -47 61 -117 q20 -66 20 -154v-584q32 -2 47 -2q8 0 19 -0.5t14 -0.5h15q40 -1 40 -36v-41h-135h-37h-2q-30 0 -38 29l-14 130q-49 -47 -83 -74q-40 -32 -87 -55q-47 -24 -97 -35q-48 -11 -115 -11q-52 0 -101 15t-87 47t-61 82q-23 51 -23 119zM170 251q0 -50 17 -89q16 -36 44 -61 t65 -35q38 -12 77 -12q61 0 109 13q51 14 92 36q37 20 79 55q40 33 73 68v266q-148 -5 -250 -22q-102 -18 -173 -49q-67 -30 -101 -73q-32 -41 -32 -97zM218 1197l223 252h87l223 -252h-67q-16 0 -28 12l-159 167q-9 7 -12 12q-1 -3 -5 -7l-5 -5l-161 -167q-5 -5 -12 -8 q-10 -4 -15 -4h-69z" />
<glyph unicode="&#xe3;" horiz-adv-x="1040" d="M77 247q0 65 37 120q38 56 115 96q79 41 202 65q126 25 296 29v107q0 141 -61 217t-181 76q-76 0 -125 -20q-51 -21 -88 -45q-34 -23 -58 -45q-22 -21 -38 -21q-20 0 -31 19l-17 29q81 81 168 121q90 41 200 41q80 0 143 -26q60 -25 102 -75q40 -47 61 -117 q20 -66 20 -154v-584q32 -2 47 -2q9 0 20 -0.5t13 -0.5h15q40 -1 40 -36v-41h-135h-37h-2q-30 0 -38 29l-14 130q-49 -47 -83 -74q-40 -32 -87 -55q-47 -24 -97 -35q-48 -11 -115 -11q-51 0 -101 15q-49 15 -87 47t-61 82q-23 51 -23 119zM171 251q0 -50 17 -89 q16 -36 44 -61t65 -35q38 -12 77 -12q61 0 109 13q51 14 92 36q37 20 79 55q40 33 73 68v266q-148 -5 -250 -22q-102 -18 -173 -49q-67 -30 -101 -73q-32 -41 -32 -97zM225 1243q0 34 11 69q11 33 29 56t47 37q26 13 63 13q34 0 65 -17q24 -13 57 -37q23 -16 53 -36 q26 -17 53 -17q45 0 67 28q21 27 23 76h61q0 -32 -10 -69q-8 -31 -29 -56q-19 -24 -46 -37q-26 -13 -63 -13q-33 0 -64 17q-28 16 -58 37q-36 26 -53 37q-26 17 -53 17q-42 0 -66 -30q-22 -28 -24 -75h-63z" />
<glyph unicode="&#xe4;" horiz-adv-x="1041" d="M77 247q0 65 37 120q38 56 115 96q79 41 202 65q126 25 296 29v107q0 141 -61 217t-181 76q-76 0 -125 -20q-51 -21 -88 -45q-34 -23 -58 -45q-22 -21 -38 -21q-20 0 -31 19l-17 29q81 81 168 121q90 41 200 41q80 0 143 -26q60 -25 102 -75q40 -47 61 -117 q20 -66 20 -154v-584q32 -2 47 -2q9 0 20 -0.5t13 -0.5h15q40 -1 40 -36v-41h-135h-37h-2q-30 0 -38 29l-14 130q-49 -47 -83 -74q-40 -32 -87 -55q-47 -24 -97 -35q-48 -11 -115 -11q-51 0 -101 15q-49 15 -87 47t-61 82q-23 51 -23 119zM171 251q0 -50 17 -89 q16 -36 44 -61t65 -35q38 -12 77 -12q61 0 109 13q51 14 92 36q37 20 79 55q40 33 73 68v266q-148 -5 -250 -22q-102 -18 -173 -49q-67 -30 -101 -73q-32 -41 -32 -97zM226 1315q0 15 7 33q6 15 18 27t27 18q18 7 31 7t32 -7q16 -6 28 -18q9 -9 18 -27q7 -14 7 -33 q0 -17 -7 -31q-9 -18 -18 -27q-11 -11 -28 -17q-19 -7 -32 -7t-31 7q-17 7 -27 17q-12 12 -18 27q-7 18 -7 31zM576 1315q0 15 7 33q5 13 19 27q13 13 26 18q18 7 32 7t33 -7q14 -5 27 -18q9 -9 18 -27q7 -14 7 -33q0 -17 -7 -31q-9 -18 -18 -27q-11 -11 -27 -17 q-19 -7 -33 -7t-32 7q-15 6 -26 17q-14 14 -19 27q-7 17 -7 31z" />
<glyph unicode="&#xe5;" horiz-adv-x="1037" d="M75 247q0 65 37 120q38 56 115 96q79 41 202 65q126 25 296 29v107q0 141 -61 217t-181 76q-76 0 -125 -20q-51 -21 -88 -45q-34 -23 -58 -45q-22 -21 -38 -21q-20 0 -31 19l-17 29q81 81 168 121q90 41 200 41q80 0 143 -26q60 -25 102 -75q40 -47 61 -117 q20 -66 20 -154v-584q32 -2 47 -2q9 0 20 -0.5t13 -0.5h15q40 -1 40 -36v-41h-135h-37h-2q-30 0 -38 29l-14 130q-49 -47 -83 -74q-40 -32 -87 -55q-47 -24 -97 -35q-48 -11 -115 -11q-51 0 -101 15q-49 15 -87 47t-61 82q-23 51 -23 119zM169 251q0 -50 17 -89 q16 -36 44 -61t65 -35q37 -12 77 -12q61 0 109 13q51 14 92 36q37 20 79 55q40 33 73 68v266q-148 -5 -250 -22q-102 -18 -173 -49q-67 -30 -101 -73q-32 -41 -32 -97zM307 1333q0 37 14 68q14 30 38 53q21 20 56 34q32 13 68 13t68 -13q37 -15 57 -34q22 -20 38 -53 q14 -28 14 -68q0 -39 -14 -67q-16 -33 -38 -53q-23 -22 -57 -34q-36 -13 -68 -13t-68 13q-32 12 -56 34q-24 23 -38 53q-14 31 -14 67zM367 1333q0 -52 32 -84t85 -32q52 0 84 32q33 33 33 84t-33 84t-84 33q-52 0 -85 -33q-32 -32 -32 -84z" />
<glyph unicode="&#xe6;" horiz-adv-x="1604" d="M81 264q0 66 37 124q37 57 115 101q82 46 202 72q126 28 296 32v71q0 141 -61 218t-181 77q-74 0 -125 -21q-54 -22 -88 -45q-31 -20 -58 -46q-22 -21 -38 -21q-10 0 -18 5q-6 3 -12 14l-18 29q82 82 164 121q87 41 196 41q128 0 202 -66q74 -67 98 -180q47 112 140 179 q91 66 226 66q77 0 143 -30q65 -29 116 -90q49 -58 78 -146q28 -85 28 -201q0 -22 -5 -30q-5 -9 -20 -9h-676q0 -110 25 -201q24 -88 69 -146q44 -57 109 -88q61 -29 141 -29q75 0 124 16q48 16 86 37q34 19 55 37q20 17 29 17q16 0 23 -10l24 -31q-25 -31 -61 -57t-84 -46 q-38 -16 -98 -30q-47 -11 -105 -11q-134 0 -231 70t-145 211q-21 -80 -64 -133q-44 -54 -98 -88q-54 -33 -118 -49q-57 -14 -118 -14q-70 0 -120 15q-57 17 -96 50q-41 35 -65 87q-23 50 -23 128zM175 268q0 -56 17 -98q16 -39 48 -66q29 -25 72 -37q46 -13 92 -13 q66 0 127 23q58 22 104 66q45 44 71 107q25 62 25 144v133q-148 -5 -250 -25q-107 -21 -173 -55q-69 -35 -101 -79t-32 -100zM824 592h613q0 87 -21 156q-22 72 -57 117t-89 72q-52 26 -114 26q-74 0 -133 -27q-58 -27 -100 -75q-41 -47 -67 -117q-26 -71 -32 -152z" />
<glyph unicode="&#xe7;" horiz-adv-x="937" d="M79 510q0 114 31 213q30 97 89 166q58 68 145 108q83 38 196 38q37 0 107 -16q81 -19 125 -32l53 -16v-257h-50q-41 0 -44 50q0 1 -0.5 4t-1 9t-0.5 12q-1 7 -2.5 26.5t-2.5 30.5q-6 67 -6 78q-96 34 -173 34q-90 0 -156 -31q-70 -33 -115 -89q-47 -59 -71 -142 q-25 -86 -25 -186q0 -110 25 -191q26 -84 71 -139q47 -57 112 -87q64 -29 145 -29q77 0 124 17q55 20 82 38q35 24 51 38q18 17 30 17q14 0 21 -10l26 -33q-25 -32 -59 -57q-34 -26 -81 -46q-49 -21 -98 -31q-40 -8 -87 -10l-25 -80q90 -16 139 -47q48 -32 48 -91 q0 -31 -14 -56t-39 -41q-27 -17 -60 -26q-38 -10 -76 -10q-41 0 -82 12q-39 12 -66 31l10 29q6 12 16 12q7 0 14 -5q3 -2 11 -6l12 -6q21 -9 34 -13q18 -5 50 -5q54 0 82 22q29 23 29 62q0 25 -14 42q-13 16 -37 28q-29 13 -58 18q-37 7 -74 11l38 120q-78 6 -139 34 q-81 36 -138 102q-59 68 -90 165q-32 95 -32 221z" />
<glyph unicode="&#xe8;" horiz-adv-x="1005" d="M73 530q0 111 31 203q31 91 90 159q58 68 144 105q87 38 194 38q89 0 160 -29q73 -30 127 -87t84 -140t30 -190q0 -22 -7 -31q-6 -8 -21 -8h-736v-20q0 -114 27 -201q28 -91 75 -146q50 -59 119 -89q67 -29 156 -29q78 0 133 16q53 15 95 38q35 19 61 38q23 17 32 17 q14 0 21 -10l26 -33q-23 -29 -65 -57q-39 -26 -90 -46q-42 -17 -106 -30q-52 -11 -114 -11q-105 0 -191 36q-84 35 -147 106q-62 69 -95 171q-33 101 -33 230zM173 612h672q0 81 -23 147q-23 65 -63 110q-40 44 -99 69t-126 25q-76 0 -142 -25q-62 -24 -108 -71 q-47 -48 -74 -110q-28 -63 -37 -145zM322 1465h94q26 0 37 -7t23 -25l161 -244h-55q-12 0 -21 3t-17 14z" />
<glyph unicode="&#xe9;" horiz-adv-x="1006" d="M73 530q0 111 31 203q31 91 90 159q58 68 144 105q87 38 194 38q89 0 160 -29q73 -30 127 -87t84 -140t30 -190q0 -22 -7 -31q-6 -8 -21 -8h-736v-20q0 -114 27 -201q28 -91 75 -146q50 -59 119 -89q67 -29 156 -29q78 0 133 16q53 15 95 38q35 19 61 38q23 17 32 17 q14 0 21 -10l26 -33q-23 -29 -65 -57q-39 -26 -90 -46q-42 -17 -106 -30q-52 -11 -114 -11q-105 0 -191 36q-84 35 -147 106q-62 69 -95 171q-33 101 -33 230zM173 612h672q0 81 -23 147q-23 65 -63 110q-40 44 -99 69t-126 25q-76 0 -142 -25q-62 -24 -108 -71 q-47 -48 -74 -110q-28 -63 -37 -145zM445 1189l161 244q11 17 24 25q11 7 37 7h96l-221 -259q-8 -11 -17 -14t-21 -3h-59z" />
<glyph unicode="&#xea;" horiz-adv-x="1006" d="M73 530q0 111 31 203q31 91 90 159q58 68 144 105q87 38 194 38q89 0 160 -29q73 -30 127 -87t84 -140t30 -190q0 -22 -7 -31q-6 -8 -21 -8h-736v-20q0 -114 27 -201q28 -91 75 -146q50 -59 119 -89q67 -29 156 -29q78 0 133 16q53 15 95 38q35 19 61 38q23 17 32 17 q14 0 21 -10l26 -33q-23 -29 -65 -57q-39 -26 -90 -46q-42 -17 -106 -30q-52 -11 -114 -11q-105 0 -191 36q-84 35 -147 106q-62 69 -95 171q-33 101 -33 230zM173 612h672q0 81 -23 147q-23 65 -63 110q-40 44 -99 69t-126 25q-76 0 -142 -25q-62 -24 -108 -71 q-47 -48 -74 -110q-28 -63 -37 -145zM266 1197l223 252h88l222 -252h-67q-15 0 -27 12l-160 167q-7 5 -11 12q0 -2 -6 -7l-5 -5l-160 -167q-5 -5 -13 -8q-10 -4 -15 -4h-69z" />
<glyph unicode="&#xeb;" horiz-adv-x="1009" d="M74 530q0 111 31 203q31 91 90 159t144 105q87 38 195 38q88 0 159 -29q73 -30 127 -87t84 -140t30 -190q0 -22 -7 -31q-6 -8 -21 -8h-736v-20q0 -114 27 -201q28 -91 75 -146q50 -59 119 -89q67 -29 156 -29q78 0 133 16q53 15 95 38q35 19 61 38q23 17 32 17 q14 0 21 -10l26 -33q-23 -29 -65 -57q-39 -26 -90 -46q-42 -17 -106 -30q-52 -11 -114 -11q-106 0 -191 36q-84 35 -147 106q-62 69 -95 171q-33 101 -33 230zM174 612h672q0 81 -23 147q-23 65 -63 110t-98 69q-59 25 -127 25q-76 0 -142 -25q-62 -24 -108 -71 q-47 -48 -74 -110q-28 -63 -37 -145zM274 1315q0 15 7 33q5 13 19 27q13 13 26 18q18 7 31 7q14 0 33 -7q14 -5 27 -18q9 -9 18 -27q7 -14 7 -33q0 -17 -7 -31q-9 -18 -18 -27q-11 -11 -27 -17q-19 -7 -33 -7q-13 0 -31 7q-15 6 -26 17q-14 14 -19 27q-7 18 -7 31zM625 1315 q0 18 6 33q5 13 19 27q13 13 26 18q18 7 33 7q13 0 32 -7q14 -5 27 -18q9 -9 18 -27q8 -16 8 -33q0 -15 -8 -31q-9 -18 -18 -27q-11 -11 -27 -17q-19 -7 -32 -7q-15 0 -33 7q-15 6 -26 17q-14 14 -19 27q-6 15 -6 31z" />
<glyph unicode="&#xec;" horiz-adv-x="585" d="M99 1465h95q25 0 36 -7q13 -8 24 -25l161 -244h-56q-12 0 -21 3q-8 3 -16 14zM111 0v41q0 34 41 36h13q2 0 6.5 0.5t12 1t14.5 0.5q9 1 29.5 1.5t31.5 0.5v857q-9 0 -25.5 0.5t-24.5 1.5q-15 1 -31 1q-3 0 -8 0.5t-7 0.5h-11q-41 2 -41 36v41h148h97v-938q9 0 25.5 -0.5 t24.5 -1.5q15 -1 31 -1q3 0 8.5 -0.5t7.5 -0.5h11q40 -1 40 -36v-41h-148h-97h-148z" />
<glyph unicode="&#xed;" horiz-adv-x="581" d="M99 0v41q0 34 41 36h13q2 0 6.5 0.5t12 1t14.5 0.5q9 1 29.5 1.5t31.5 0.5v857q-9 0 -25.5 0.5t-24.5 1.5q-15 1 -31 1q-3 0 -8 0.5t-7 0.5h-11q-41 2 -41 36v41h148h98v-938q9 0 25.5 -0.5t24.5 -1.5q15 -1 30 -1q3 0 8.5 -0.5t7.5 -0.5h11q40 -1 40 -36v-41h-147h-98 h-148zM211 1189l161 244q11 17 24 25q11 7 37 7h96l-221 -259q-8 -11 -17 -14t-21 -3h-59z" />
<glyph unicode="&#xee;" horiz-adv-x="576" d="M30 1197l223 252h87l222 -252h-66q-16 0 -28 12l-160 167q-7 5 -11 12q-1 -3 -5 -7l-5 -5l-161 -167q-5 -5 -12 -8q-10 -4 -16 -4h-68zM97 0v41q0 35 40 36h14q2 0 6.5 0.5t12 1t14.5 0.5q9 1 29.5 1.5t31.5 0.5v857q-9 0 -25.5 0.5t-24.5 1.5q-15 1 -31 1q-3 0 -8.5 0.5 t-7.5 0.5h-11q-40 1 -40 36v41h148h97v-938q9 0 25.5 -0.5t24.5 -1.5q15 -1 31 -1q3 0 8 -0.5t7 -0.5h11q41 -2 41 -36v-41h-148h-97h-148z" />
<glyph unicode="&#xef;" horiz-adv-x="607" d="M54 1315q0 15 7 33q6 15 18 27t27 18q18 7 31 7t32 -7q16 -6 28 -18q9 -9 18 -27q7 -14 7 -33q0 -17 -7 -31q-9 -18 -18 -27q-11 -11 -28 -17q-19 -7 -32 -7t-31 7q-17 7 -27 17q-12 12 -18 27q-7 18 -7 31zM114 0v41q0 34 41 36h13q2 0 6.5 0.5t12 1t14.5 0.5 q9 1 29.5 1.5t31.5 0.5v857q-9 0 -25.5 0.5t-24.5 1.5q-15 1 -31 1q-3 0 -8 0.5t-7 0.5h-11q-41 2 -41 36v41h148h97v-938q9 0 25.5 -0.5t24.5 -1.5q15 -1 31 -1q3 0 8.5 -0.5t7.5 -0.5h11q40 -1 40 -36v-41h-148h-97h-148zM404 1315q0 15 7 33q5 13 19 27q13 13 26 18 q18 7 32 7t33 -7q14 -5 27 -18q9 -9 18 -27q7 -14 7 -33q0 -17 -7 -31q-9 -18 -18 -27q-11 -11 -27 -17q-19 -7 -33 -7t-32 7q-15 6 -26 17q-14 14 -19 27q-7 18 -7 31z" />
<glyph unicode="&#xf0;" horiz-adv-x="1072" d="M70 466q0 101 29 185q30 88 87 152q58 66 140 103q81 37 188 37q51 0 109 -14q51 -13 106 -43q49 -27 94 -74t77 -106q-15 184 -87 309q-71 123 -184 200l-168 -148l-18 29q-7 7 -7 18q0 9 13 22l129 111q-57 32 -130 58q-74 26 -144 40q-10 1 -18 9t-8 22q0 7 2 14l5 15 l6 20q92 -15 182 -45q87 -29 169 -80l157 139l18 -30q5 -8 5 -16q0 -12 -13 -24l-117 -102q63 -47 118 -111q57 -67 94 -143q41 -85 61 -180q21 -99 21 -220q0 -138 -29 -256q-28 -113 -88 -198q-59 -83 -146 -127t-206 -44q-93 0 -174 33t-143 95q-61 61 -96 151 q-34 87 -34 199zM167 466q0 -96 28 -170t77 -126q48 -51 113 -78t134 -27q92 0 159 35q71 37 116 101q46 66 72 161q26 96 29 215q-13 47 -46 104q-30 53 -75 93q-47 42 -105 67q-59 25 -139 25q-90 0 -158 -30q-67 -30 -113 -85q-47 -57 -69 -128q-23 -75 -23 -157z" />
<glyph unicode="&#xf1;" horiz-adv-x="1280" d="M101 0v41q0 34 41 36h13l34 2q9 1 29 1.5t31 0.5v857q-9 0 -25.5 0.5t-24.5 1.5q-15 1 -31 1h-15q-2 0 -6 0.5t-5 0.5q-41 2 -41 36v41h148h54q25 0 30 -26l9 -153q66 85 163 141q93 54 206 54q86 0 148 -26q63 -26 106 -77t64 -121t21 -160v-570q9 0 25.5 -0.5 t24.5 -1.5q15 -1 31 -1q3 0 8 -0.5t7 -0.5h11q41 -2 41 -36v-41h-148h-97v651q0 144 -66 225t-200 81q-101 0 -187 -51q-84 -50 -153 -142v-683q9 0 25 -0.5t24 -1.5q15 -1 31 -1q3 0 8.5 -0.5t7.5 -0.5h11q40 -1 40 -36v-41h-147h-98h-148zM385 1243q0 34 11 69 q11 33 29 56q18 22 48 37q26 13 62 13q34 0 65 -17q24 -13 57 -37q14 -10 54 -36q26 -17 52 -17q45 0 67 28q21 27 23 76h61q0 -32 -10 -69q-8 -31 -29 -56q-19 -24 -46 -37q-26 -13 -63 -13q-33 0 -64 17q-24 13 -57 37q-27 20 -54 37q-26 17 -53 17q-41 0 -65 -30t-25 -75 h-63z" />
<glyph unicode="&#xf2;" horiz-adv-x="1076" d="M73 510q0 121 31 217t91 165q59 68 147 106q86 37 196 37t196 -37t146 -106q58 -67 90 -165q31 -96 31 -217q0 -122 -31 -216q-32 -99 -90 -165q-59 -67 -146 -105q-86 -37 -196 -37t-196 37q-89 38 -147 105q-59 68 -91 165q-31 94 -31 216zM173 510q0 -101 23 -185 q22 -79 69 -141q44 -57 113 -89t160 -32q90 0 159 32t113 89q47 62 69 141q22 81 22 185q0 103 -22 184t-69 142q-46 60 -113 91q-66 31 -159 31q-94 0 -160 -31q-67 -31 -113 -91q-47 -61 -69 -142q-23 -84 -23 -184zM328 1465h94q26 0 37 -7t23 -25l161 -244h-55 q-12 0 -21 3t-17 14z" />
<glyph unicode="&#xf3;" horiz-adv-x="1077" d="M74 510q0 121 31 217t91 165q59 68 147 106q86 37 196 37t196 -37t146 -106q58 -67 90 -165q31 -96 31 -217q0 -122 -31 -216q-32 -99 -90 -165q-59 -67 -146 -105q-86 -37 -196 -37t-196 37q-89 38 -147 105q-59 68 -91 165q-31 94 -31 216zM174 510q0 -101 23 -185 q22 -79 69 -141q44 -57 113 -89t160 -32q90 0 159 32q71 33 114 89q46 60 68 141t22 185q0 103 -22 184q-23 83 -68 142t-114 91q-66 31 -159 31q-94 0 -160 -31q-67 -31 -113 -91q-47 -61 -69 -142q-23 -84 -23 -184zM453 1189l160 244q11 17 24 25q11 7 37 7h96l-221 -259 q-8 -11 -17 -14t-21 -3h-58z" />
<glyph unicode="&#xf4;" horiz-adv-x="1075" d="M73 510q0 121 31 217t91 165q59 68 147 106q86 37 196 37t196 -37t146 -106q58 -67 90 -165q31 -96 31 -217q0 -122 -31 -216q-32 -99 -90 -165q-59 -67 -146 -105q-86 -37 -196 -37t-196 37q-89 38 -147 105q-59 68 -91 165q-31 94 -31 216zM173 510q0 -101 23 -185 q22 -79 69 -141q44 -57 113 -89t160 -32q90 0 159 32t113 89q47 62 69 141q22 81 22 185q0 103 -22 184t-69 142q-46 60 -113 91q-66 31 -159 31q-94 0 -160 -31q-67 -31 -113 -91q-47 -61 -69 -142q-23 -84 -23 -184zM272 1197l224 252h87l222 -252h-67q-15 0 -27 12 l-160 167q-7 5 -11 12q-1 -3 -5 -7l-3 -3l-3 -2l-160 -167q-5 -5 -13 -8q-10 -4 -15 -4h-69z" />
<glyph unicode="&#xf5;" horiz-adv-x="1079" d="M75 510q0 121 31 217t91 165q59 68 147 106q86 37 196 37t196 -37t146 -106q58 -67 90 -165q32 -99 32 -217t-32 -216q-32 -99 -90 -165q-59 -67 -146 -105q-86 -37 -196 -37t-196 37q-89 38 -147 105q-59 68 -91 165q-31 94 -31 216zM175 510q0 -101 23 -185 q22 -79 69 -141q44 -57 113 -89t160 -32q90 0 159 32q71 33 114 89q46 60 68 141t22 185q0 103 -22 184q-23 83 -68 142t-114 91q-66 31 -159 31q-94 0 -160 -31q-67 -31 -113 -91q-47 -61 -69 -142q-23 -84 -23 -184zM281 1243q0 38 10 69t30 56q18 23 47 37q26 13 62 13 q34 0 65 -17q24 -13 57 -37q14 -10 54 -36q26 -17 52 -17q45 0 67 28q23 29 24 76h60q0 -32 -10 -69q-9 -32 -28 -56q-18 -23 -47 -37q-26 -13 -62 -13q-33 0 -64 17q-28 16 -58 37q-27 20 -54 37q-26 17 -53 17q-41 0 -65 -30t-25 -75h-62z" />
<glyph unicode="&#xf6;" horiz-adv-x="1079" d="M75 510q0 121 31 217t91 165q59 68 147 106q86 37 196 37t196 -37t146 -106q58 -67 90 -165q32 -99 32 -217t-32 -216q-32 -99 -90 -165q-59 -67 -146 -105q-86 -37 -196 -37t-196 37q-89 38 -147 105q-59 68 -91 165q-31 94 -31 216zM175 510q0 -101 23 -185 q22 -79 69 -141q44 -57 113 -89t160 -32q90 0 159 32q71 33 114 89q46 60 68 141t22 185q0 103 -22 184q-23 83 -68 142t-114 91q-66 31 -159 31q-94 0 -160 -31q-67 -31 -113 -91q-47 -61 -69 -142q-23 -84 -23 -184zM282 1315q0 18 6 33q5 13 19 27q13 13 26 18q18 7 32 7 q13 0 32 -7q14 -5 27 -18q9 -9 18 -27q8 -16 8 -33q0 -15 -8 -31q-9 -18 -18 -27q-11 -11 -27 -17q-19 -7 -32 -7q-15 0 -32 7q-15 6 -26 17q-14 14 -19 27q-6 15 -6 31zM632 1315q0 18 6 33q5 13 19 27q12 12 27 18q17 7 32 7q13 0 32 -7q14 -5 27 -18q11 -11 19 -27 q7 -14 7 -33q0 -17 -7 -31q-8 -16 -19 -27t-27 -17q-19 -7 -32 -7q-14 0 -32 7q-17 7 -27 17q-14 14 -19 27q-6 15 -6 31z" />
<glyph unicode="&#xf7;" horiz-adv-x="1074" d="M53 649v75h962v-75h-962zM439 321q0 39 27 68q27 28 68 28q17 0 36 -8t31 -20t20 -31t8 -37q0 -20 -8 -38t-20 -30t-31 -20q-17 -7 -36 -7q-41 0 -68 27t-27 68zM439 1050q0 40 27 68t68 28q17 0 36 -8t31 -20t20 -31t8 -37q0 -20 -8 -38q-7 -16 -20 -29q-12 -12 -31 -20 t-36 -8q-40 0 -68 28q-27 27 -27 67z" />
<glyph unicode="&#xf8;" horiz-adv-x="1106" d="M87 510q0 121 31 217t91 165q59 68 147 106q86 37 196 37q91 0 163 -25q75 -26 130 -71l89 119q11 14 21 22q8 7 29 7h51l-144 -193q62 -69 93 -166q32 -99 32 -218q0 -122 -31 -216q-32 -97 -91 -165q-59 -67 -146 -105q-86 -37 -196 -37q-165 0 -276 81l-82 -112 q-12 -17 -31 -25q-18 -8 -34 -8h-39l138 186q-70 70 -105 170q-36 102 -36 231zM182 510q0 -107 24 -191q24 -82 74 -142l516 695q-46 43 -107 66t-137 23q-91 0 -160 -33q-70 -34 -116 -91q-46 -58 -70 -142t-24 -185zM325 132q89 -71 227 -71q90 0 160 32q68 31 115 90 q45 57 70 142q24 82 24 185q0 195 -82 313z" />
<glyph unicode="&#xf9;" horiz-adv-x="1217" d="M38 978v41h148h97v-651q0 -144 66 -225q67 -82 200 -82q99 0 186 51q85 50 155 141v685q-9 0 -25 0.5t-24 1.5q-15 1 -31 1h-16q-2 0 -6 0.5t-5 0.5q-40 1 -40 36v41h147h98v-938q9 0 25.5 -0.5t24.5 -1.5q15 -1 31 -1q3 0 8 -0.5t7 -0.5h11q41 -2 41 -36v-41h-148h-54 q-28 0 -29 27l-10 151q-69 -86 -163 -141q-91 -53 -207 -53q-87 0 -148 26q-64 27 -106 77q-43 51 -64 121q-21 71 -21 160v570q-9 0 -25.5 0.5t-24.5 1.5q-15 1 -31 1h-16q-2 0 -6 0.5t-5 0.5q-40 1 -40 36zM382 1465h95q25 0 36 -7q13 -8 24 -25l161 -244h-55q-12 0 -21 3 t-17 14z" />
<glyph unicode="&#xfa;" horiz-adv-x="1217" d="M38 978v41h148h97v-651q0 -144 66 -225q67 -82 200 -82q99 0 186 51q85 50 155 141v685q-9 0 -25 0.5t-24 1.5q-15 1 -31 1h-16q-2 0 -6 0.5t-5 0.5q-40 1 -40 36v41h147h98v-938q9 0 25.5 -0.5t24.5 -1.5q15 -1 31 -1q3 0 8 -0.5t7 -0.5h11q41 -2 41 -36v-41h-148h-54 q-28 0 -29 27l-10 151q-69 -86 -163 -141q-91 -53 -207 -53q-87 0 -148 26q-64 27 -106 77q-43 51 -64 121q-21 71 -21 160v570q-9 0 -25.5 0.5t-24.5 1.5q-15 1 -31 1h-16q-2 0 -6 0.5t-5 0.5q-40 1 -40 36zM506 1189l161 244q11 17 24 25q11 7 37 7h96l-221 -259 q-8 -11 -17 -14t-21 -3h-59z" />
<glyph unicode="&#xfb;" horiz-adv-x="1217" d="M38 978v41h148h97v-651q0 -144 66 -225q67 -82 200 -82q99 0 186 51q85 50 155 141v685q-9 0 -25 0.5t-24 1.5q-15 1 -31 1h-16q-2 0 -6 0.5t-5 0.5q-40 1 -40 36v41h147h98v-938q9 0 25.5 -0.5t24.5 -1.5q15 -1 31 -1q3 0 8 -0.5t7 -0.5h11q41 -2 41 -36v-41h-148h-54 q-28 0 -29 27l-10 151q-69 -86 -163 -141q-91 -53 -207 -53q-87 0 -148 26q-64 27 -106 77q-43 51 -64 121q-21 71 -21 160v570q-9 0 -25.5 0.5t-24.5 1.5q-15 1 -31 1h-16q-2 0 -6 0.5t-5 0.5q-40 1 -40 36zM327 1197l223 252h87l223 -252h-67q-16 0 -28 12l-159 167 q-9 7 -12 12q-1 -3 -5 -7l-5 -5l-161 -167q-5 -5 -12 -8q-10 -4 -15 -4h-69z" />
<glyph unicode="&#xfc;" horiz-adv-x="1218" d="M39 978v41h148h97v-651q0 -144 66 -225q67 -82 200 -82q99 0 186 51q85 50 155 141v685q-9 0 -25 0.5t-24 1.5q-15 1 -31 1h-16q-2 0 -6 0.5t-5 0.5q-40 1 -40 36v41h147h98v-938q9 0 25.5 -0.5t24.5 -1.5q15 -1 31 -1q3 0 8 -0.5t7 -0.5h11q41 -2 41 -36v-41h-148h-54 q-27 0 -29 27l-10 151q-69 -86 -163 -141q-91 -53 -207 -53q-87 0 -148 26q-64 27 -106 77q-43 51 -64 121q-21 71 -21 160v570q-9 0 -25.5 0.5t-24.5 1.5q-15 1 -31 1h-16q-2 0 -5.5 0.5t-4.5 0.5q-41 2 -41 36zM335 1315q0 15 7 33q6 15 18 27t27 18q17 7 31 7t33 -7 q14 -5 27 -18q9 -9 18 -27q7 -14 7 -33q0 -17 -7 -31q-9 -18 -18 -27q-11 -11 -27 -17q-19 -7 -33 -7t-31 7t-27 17q-12 12 -18 27q-7 18 -7 31zM686 1315q0 18 6 33q5 13 19 27q13 13 26 18q17 7 32 7q14 0 33 -7q14 -5 27 -18q9 -9 18 -27q7 -14 7 -33q0 -17 -7 -31 q-9 -18 -18 -27q-11 -11 -27 -17q-19 -7 -33 -7q-15 0 -32 7q-15 6 -26 17q-14 14 -19 27q-6 15 -6 31z" />
<glyph unicode="&#xfd;" horiz-adv-x="1180" d="M34 978v41h68h81h1h207v-41q0 -34 -41 -36q-2 0 -6 -0.5t-7 -0.5q-16 0 -33 -1q-9 -1 -29.5 -1.5t-30.5 -0.5l319 -736q4 -10 10 -32q3 -10 9 -32q2 7 11 32q2 5 6 16t6 16l314 736q-9 0 -25 0.5t-24 1.5q-15 1 -31 1h-14q-2 0 -6 0.5t-5 0.5q-41 2 -41 36v41h205h75h77 v-41q0 -34 -41 -36q-1 0 -4.5 -0.5t-5.5 -0.5h-23q-12 0 -38 -2l-551 -1267q-5 -13 -15 -23q-11 -9 -29 -9h-69l179 398l-396 901q-61 3 -63 3q-40 1 -40 36zM517 1189l160 244q11 17 24 25q11 7 37 7h96l-221 -259q-8 -11 -17 -14t-21 -3h-58z" />
<glyph unicode="&#xfe;" horiz-adv-x="1098" d="M171 -360v1850h97v-650q67 90 157 143q88 52 201 52q188 0 293 -129q104 -128 104 -390q0 -109 -29 -208q-28 -97 -86 -168q-59 -73 -138 -112q-84 -41 -190 -41q-105 0 -181 40q-77 41 -131 117v-504h-97zM268 223q57 -87 130 -124q70 -36 162 -36q90 0 158 33t113 93 q48 64 69 143q23 86 23 184q0 228 -84 334q-84 107 -241 107q-102 0 -184 -52q-83 -53 -146 -147v-535z" />
<glyph unicode="&#xff;" horiz-adv-x="1180" d="M34 978v41h68h81h1h207v-41q0 -34 -41 -36q-2 0 -6 -0.5t-7 -0.5q-16 0 -33 -1q-9 -1 -29.5 -1.5t-30.5 -0.5l319 -736q4 -10 10 -32q3 -10 9 -32q2 7 11 32q2 5 6 16t6 16l314 736q-9 0 -25 0.5t-24 1.5q-15 1 -31 1h-14q-2 0 -6 0.5t-5 0.5q-41 2 -41 36v41h205h75h77 v-41q0 -34 -41 -36q-1 0 -4.5 -0.5t-5.5 -0.5h-23q-12 0 -38 -2l-551 -1267q-5 -13 -15 -23q-11 -9 -29 -9h-69l179 398l-396 901q-61 3 -63 3q-40 1 -40 36zM345 1315q0 18 6 33q5 13 19 27q13 13 26 18q18 7 31 7q14 0 33 -7q14 -5 27 -18q9 -9 18 -27q7 -14 7 -33 q0 -17 -7 -31q-9 -18 -18 -27q-11 -11 -27 -17q-19 -7 -33 -7q-13 0 -31 7q-15 6 -26 17q-14 14 -19 27q-6 15 -6 31zM695 1315q0 18 6 33q5 13 19 27q13 13 26 18q18 7 33 7q13 0 32 -7q14 -5 27 -18q11 -11 19 -27q7 -14 7 -33q0 -17 -7 -31q-8 -16 -19 -27t-27 -17 q-19 -7 -32 -7q-15 0 -33 7q-15 6 -26 17q-14 14 -19 27q-6 15 -6 31z" />
<glyph unicode="&#x152;" horiz-adv-x="2236" d="M78 725q0 167 45 304q44 134 128 233q83 98 196 150q115 53 252 53q95 0 179 -24q83 -24 153 -71q71 -48 125 -112q53 -63 92 -150v341h857v-87v-213h-50q-41 0 -44 50q0 5 -1.5 27t-3 63.5t-3.5 72.5h-661v-586h577v-85h-577v-604h661q2 31 3.5 72.5t3 63.5t1.5 27 q3 50 45 50h49v-213v-87h-857v342q-39 -87 -92 -150q-57 -67 -125 -112q-69 -45 -153 -69t-179 -24q-139 0 -252 52q-115 53 -196 149q-84 99 -128 233q-45 136 -45 304zM185 725q0 -151 39 -273q39 -123 107 -205q67 -82 167 -128q95 -44 214 -44q120 0 214 44 q98 45 166 128q70 85 107 205q38 123 38 273q0 149 -38 272q-37 121 -107 206q-69 84 -166 129q-96 45 -214 45q-116 0 -214 -45t-167 -129q-67 -82 -107 -206q-39 -122 -39 -272z" />
<glyph unicode="&#x153;" horiz-adv-x="1734" d="M80 510q0 120 30 217q30 96 85 165q55 68 137 106q80 37 182 37q149 0 247 -79q99 -79 142 -217q22 71 56 122q37 56 83 93q48 39 110 60t135 21q77 0 144 -30q64 -28 116 -90q49 -58 78 -146q28 -85 28 -201q0 -22 -6 -30q-7 -9 -20 -9h-676q0 -110 25 -201 q24 -86 70 -146q44 -57 109 -88q61 -29 141 -29q71 0 120 16q47 15 86 38q30 17 56 38q22 17 32 17q13 0 20 -10l26 -33q-25 -31 -61 -57t-84 -46q-38 -16 -98 -30q-47 -11 -105 -11q-139 0 -237 76q-100 78 -145 226q-44 -144 -143 -222q-101 -80 -252 -80q-102 0 -180 37 q-83 39 -136 105q-55 68 -85 165q-30 96 -30 216zM180 510q0 -102 21 -185q20 -80 64 -141q40 -56 106 -89q64 -32 148 -32q83 0 147 32t105 89q42 58 63 141t21 185t-21 184q-21 84 -63 142q-43 60 -105 91t-147 31q-86 0 -148 -31q-63 -32 -106 -91q-43 -60 -64 -142 t-21 -184zM953 592h614q0 87 -21 156q-21 70 -58 117q-35 45 -89 72q-52 26 -114 26q-73 0 -132 -27t-101 -75q-41 -47 -67 -117q-26 -71 -32 -152z" />
<glyph unicode="&#x178;" horiz-adv-x="1408" d="M50 1408v41h65h11h80h17h205v-41q0 -35 -40 -36q-1 0 -6.5 -0.5t-9.5 -0.5q-19 0 -36 -1q-9 -1 -27 -1.5t-28 -0.5l380 -610q14 -22 25 -46q12 -25 18 -44q4 12 19 44q14 30 24 46l380 610q-10 0 -28.5 0.5t-27.5 1.5q-17 1 -36 1q-4 0 -9 0.5t-6 0.5q-41 2 -41 36v41 h206h15h81h11h65v-41q0 -34 -41 -36q-18 -1 -43 -2.5t-32 -1.5l-485 -770v-517q11 0 34 -0.5t33 -1.5q20 -1 46 -1q6 0 12 -0.5t7 -0.5q41 -2 41 -36v-41h-173h-105h-172v41q0 35 40 36q1 0 7.5 0.5t12.5 0.5q25 0 45 1q10 1 33 1.5t34 0.5v517l-485 770q-8 0 -32.5 1.5 t-42.5 2.5q-41 2 -41 36zM408 1705q0 15 7 32q6 15 18 27q13 13 26 18q17 7 31 7t32 -7q13 -5 26 -18q11 -11 19 -27q7 -14 7 -32q0 -17 -7 -31q-8 -17 -19 -26q-14 -12 -26 -17q-18 -7 -32 -7q-13 0 -31 7q-12 5 -26 17q-12 10 -18 26q-7 17 -7 31zM834 1705q0 32 25 59 q24 25 58 25q14 0 31 -7q15 -6 27 -18t18 -27q7 -17 7 -32q0 -13 -7 -31q-6 -16 -18 -26q-13 -11 -27 -17q-17 -7 -31 -7q-15 0 -32 7q-12 5 -26 17q-12 10 -18 26q-7 17 -7 31z" />
<glyph unicode="&#x2c6;" horiz-adv-x="766" d="M116 1197l223 252h87l222 -252h-66q-16 0 -28 12l-160 167q-7 5 -11 12q-1 -3 -5 -7l-5 -5l-161 -167q-5 -5 -12 -8q-10 -4 -16 -4h-68z" />
<glyph unicode="&#x2dc;" horiz-adv-x="798" d="M136 1243q0 38 10 69t30 56q18 23 47 37q26 13 63 13q34 0 65 -17q24 -13 57 -37q23 -16 53 -36q26 -17 53 -17q45 0 67 28q21 27 23 76h61q0 -32 -10 -69q-8 -31 -29 -56q-19 -24 -46 -37q-26 -13 -63 -13q-33 0 -64 17q-28 16 -58 37q-36 26 -53 37q-26 17 -53 17 q-42 0 -66 -30q-23 -28 -24 -75h-63z" />
<glyph unicode="&#x2000;" horiz-adv-x="916" />
<glyph unicode="&#x2001;" horiz-adv-x="1832" />
<glyph unicode="&#x2002;" horiz-adv-x="916" />
<glyph unicode="&#x2003;" horiz-adv-x="1832" />
<glyph unicode="&#x2004;" horiz-adv-x="610" />
<glyph unicode="&#x2005;" horiz-adv-x="458" />
<glyph unicode="&#x2006;" horiz-adv-x="305" />
<glyph unicode="&#x2007;" horiz-adv-x="305" />
<glyph unicode="&#x2008;" horiz-adv-x="229" />
<glyph unicode="&#x2009;" horiz-adv-x="366" />
<glyph unicode="&#x200a;" horiz-adv-x="101" />
<glyph unicode="&#x2010;" horiz-adv-x="758" d="M142 566v83h476v-83h-476z" />
<glyph unicode="&#x2011;" horiz-adv-x="758" d="M142 566v83h476v-83h-476z" />
<glyph unicode="&#x2012;" horiz-adv-x="758" d="M142 566v83h476v-83h-476z" />
<glyph unicode="&#x2013;" horiz-adv-x="1081" d="M140 556v73h806v-73h-806z" />
<glyph unicode="&#x2014;" horiz-adv-x="1603" d="M140 556v73h1328v-73h-1328z" />
<glyph unicode="&#x2018;" horiz-adv-x="420" d="M130 1237q0 81 39 154q41 76 101 134l28 -19q8 -6 8 -14q0 -7 -6 -13q-37 -49 -64 -104q-26 -52 -26 -106q0 -60 36 -123q5 -8 5 -17q0 -14 -15 -20l-64 -27q-22 41 -32 78t-10 77z" />
<glyph unicode="&#x2019;" horiz-adv-x="423" d="M117 1103q0 8 6 14q36 47 64 103q26 52 26 107q0 59 -36 122q-5 8 -5 16q0 15 15 21l63 26q23 -40 33 -77t10 -77q0 -80 -39 -154q-41 -76 -101 -134l-29 19q-7 6 -7 14z" />
<glyph unicode="&#x201a;" horiz-adv-x="445" d="M129 -229q0 8 6 14q39 51 65 103q25 50 25 107q0 59 -36 122q-5 8 -5 16q0 15 16 21l62 26q23 -40 33 -77t10 -77q0 -81 -39 -154q-41 -76 -101 -134l-29 18q-7 6 -7 15z" />
<glyph unicode="&#x201c;" horiz-adv-x="696" d="M130 1237q0 81 39 154q41 76 101 134l28 -19q8 -6 8 -14q0 -7 -6 -13q-37 -49 -64 -104q-26 -52 -26 -106q0 -60 36 -123q5 -8 5 -17q0 -14 -15 -20l-64 -27q-22 41 -32 78t-10 77zM406 1237q0 82 38 154q40 75 102 134l27 -19q9 -7 9 -14q0 -6 -7 -13q-37 -49 -64 -104 q-26 -52 -26 -106q0 -60 36 -123q5 -8 5 -17q0 -14 -15 -20l-64 -27q-20 37 -31 78q-10 37 -10 77z" />
<glyph unicode="&#x201d;" horiz-adv-x="699" d="M117 1103q0 8 6 14q36 47 64 103q26 52 26 107q0 59 -36 122q-5 8 -5 16q0 15 15 21l63 26q23 -40 33 -77t10 -77q0 -80 -39 -154q-41 -76 -101 -134l-29 19q-7 6 -7 14zM392 1103q0 8 6 14q39 51 65 103q25 50 25 107q0 61 -35 122q-6 10 -6 16q0 15 16 21l62 26 q23 -40 33 -77t10 -77q0 -80 -39 -154q-41 -76 -101 -134l-29 19q-7 6 -7 14z" />
<glyph unicode="&#x201e;" horiz-adv-x="720" d="M129 -229q0 8 6 14q39 51 65 103q25 50 25 107q0 59 -36 122q-5 8 -5 16q0 15 16 21l62 26q23 -40 33 -77t10 -77q0 -81 -39 -154q-41 -76 -101 -134l-29 18q-7 6 -7 15zM404 -229q0 7 7 14q36 47 64 103q26 52 26 107q0 59 -36 122q-5 8 -5 16q0 15 15 21l63 26 q21 -37 32 -77q11 -41 11 -77q0 -81 -39 -154q-40 -75 -102 -134l-28 18q-8 6 -8 15z" />
<glyph unicode="&#x2022;" horiz-adv-x="858" d="M129 610q0 62 24 118t64 97q38 40 95 65q52 23 116 23q65 0 118 -23q57 -25 96 -65q42 -43 65 -97q23 -53 23 -118q0 -63 -23 -115q-24 -54 -65 -95q-40 -40 -96 -64t-118 -24t-116 24q-56 25 -95 64t-64 95q-24 54 -24 115z" />
<glyph unicode="&#x2026;" horiz-adv-x="1476" d="M142 79q0 18 8 37t19 30q12 12 30 20t38 8q17 0 36 -8t31 -20q13 -13 20 -30q8 -19 8 -37q0 -20 -8 -38q-8 -16 -20 -29q-12 -12 -31 -20q-17 -7 -36 -7q-41 0 -68 27t-27 67zM644 79q0 20 7 37t20 30q12 12 30 20t37 8q18 0 37 -8q17 -7 30 -20q15 -15 21 -30 q8 -19 8 -37q0 -20 -8 -38q-7 -15 -21 -29q-13 -13 -30 -20t-37 -7q-40 0 -67 27t-27 67zM1147 79q0 20 7 37t20 30q12 12 30 20t37 8q18 0 37 -8q17 -7 30 -20q15 -15 21 -30q7 -17 7 -37q0 -23 -7 -38t-21 -29q-13 -13 -30 -20t-37 -7q-40 0 -67 27t-27 67z" />
<glyph unicode="&#x202f;" horiz-adv-x="366" />
<glyph unicode="&#x2039;" horiz-adv-x="515" d="M103 525v14l247 387l31 -16q16 -10 16 -25q0 -13 -7 -24l-187 -300q-13 -20 -23 -30q12 -8 23 -28l187 -301q7 -11 7 -24q0 -15 -16 -25l-31 -16z" />
<glyph unicode="&#x203a;" horiz-adv-x="519" d="M123 179q0 12 7 23l187 301q6 12 12 18q2 2 6 5.5t5 4.5q-1 1 -5 5.5t-6 6.5q-6 6 -12 18l-187 300q-7 11 -7 24q0 17 17 25l31 16l247 -387v-14l-247 -388l-31 16q-17 9 -17 26z" />
<glyph unicode="&#x205f;" horiz-adv-x="458" />
<glyph unicode="&#x20ac;" horiz-adv-x="1283" d="M81 583v60h161q-2 28 -2 41v41q0 49 3 99h-162v60h168q17 137 62 242q47 108 117 183q68 72 164 114q92 40 206 40q70 0 121 -11q53 -11 103 -35q46 -22 90 -56q39 -31 79 -77l-32 -36q-6 -6 -9 -8q-6 -4 -13 -4t-20 11q-3 2 -12 11t-16 15q-16 14 -43 34q-25 19 -59 34 q-41 18 -80 27q-43 10 -105 10q-95 0 -169 -32q-78 -34 -135 -95q-59 -63 -96 -154q-38 -93 -53 -213h617v-31q0 -10 -8 -20q-8 -9 -25 -9h-590q-3 -48 -3 -99v-41q0 -13 2 -41h529v-31q0 -11 -8 -21q-7 -8 -23 -8h-493q14 -132 50 -224q37 -94 95 -160q57 -65 134 -98 q74 -32 169 -32q64 0 112 12q49 12 85 31q39 20 64 41q31 26 45 41q18 19 31 31q15 13 22 13q10 0 20 -10l37 -35q-44 -55 -79 -86q-44 -39 -96 -66q-53 -27 -113 -42q-57 -14 -133 -14q-117 0 -210 40q-97 41 -164 116q-68 75 -112 188q-41 106 -57 254h-166z" />
<glyph unicode="&#x2122;" horiz-adv-x="1483" d="M92 1389v60h482v-60h-203v-529h-73v529h-206zM702 860v589h59q9 0 15 -2q2 -1 11 -10l223 -373l11 -30q4 13 13 30l218 373q5 8 10 10q6 2 15 2h58v-589h-63v454l5 45l-224 -389q-8 -17 -26 -17h-11q-18 0 -26 17l-228 387l5 -43v-454h-65z" />
<glyph unicode="&#xe000;" horiz-adv-x="1018" d="M0 0v1019h1019v-1019h-1019z" />
</font>
</defs>
</svg>
